<?xml version="1.0" standalone="no"?>
<!DOCTYPE svg PUBLIC "-//W3C//DTD SVG 1.1//EN" "http://www.w3.org/Graphics/SVG/1.1/DTD/svg11.dtd" >
<svg xmlns="http://www.w3.org/2000/svg">
<metadata>
This is a custom SVG webfont generated by Font Squirrel.
Copyright   :  1990 1991 1993 2001 2002 Adobe Systems Incorporated All rights reserved
Designer    : Kim Buker Chansler
Foundry     : Adobe Systems Incorporated
Foundry URL : httpwwwadobecomtype
</metadata>
<defs>
<font id="BirchStdRegular" horiz-adv-x="1228" >
<font-face units-per-em="2048" ascent="1536" descent="-512" />
<missing-glyph horiz-adv-x="245" />
<glyph unicode=" "  horiz-adv-x="245" />
<glyph unicode="&#x09;" horiz-adv-x="245" />
<glyph unicode="&#xa0;" horiz-adv-x="245" />
<glyph unicode="!" horiz-adv-x="299" d="M66 1407q-10 129 84 129t83 -129l-61 -1006q-4 -33 -22.5 -32.5t-22.5 32.5zM76 102q0 43 18.5 74t55.5 31q74 0 73 -105q0 -102 -73 -102q-37 0 -55.5 30.5t-18.5 71.5z" />
<glyph unicode="&#x22;" horiz-adv-x="526" d="M76 1473q0 37 16.5 62.5t45 25.5t45 -26t16.5 -62q0 -20 -6.5 -90t-14.5 -170.5t-12 -147.5q-6 -55 -28.5 -55t-28.5 55q-4 47 -12.5 147.5t-14.5 170.5t-6 90zM328 1473q0 37 16 62.5t45 25.5t45.5 -26t16.5 -62q0 -20 -6.5 -90t-14.5 -170.5t-12 -147.5 q-6 -55 -28.5 -55t-29.5 55q-4 47 -12 147.5t-14 170.5t-6 90z" />
<glyph unicode="#" d="M109 557h245l45 320h-225l-8 92h246l65 465h103l-66 -465h289l65 465h103l-66 -465h207l8 -92h-227l-45 -320h207l8 -92h-227l-66 -465h-102l65 465h-289l-65 -465h-103l66 465h-225zM457 557h288l46 320h-289z" />
<glyph unicode="$" horiz-adv-x="628" d="M88 453q0 23 16 22q18 0 19 -22q0 -88 46 -175.5t99 -89.5v543l-75 148q-53 106 -74 181t-21 169q0 90 51.5 152.5t118.5 72.5l-8 82h102l-8 -82q72 -6 130.5 -107.5t58.5 -236.5q0 -20 -17 -20q-18 0 -18 20q0 74 -51 163t-103 91v-518l129 -248q59 -113 60 -238 q0 -129 -59.5 -191.5t-129.5 -70.5l8 -98h-102l8 98q-76 6 -128 111t-52 244zM201 1243q0 -84 63 -227h4v348q-31 -2 -49 -39t-18 -82zM354 188q35 2 56.5 40t21.5 94q0 88 -35 157l-39 76h-4v-367z" />
<glyph unicode="%" horiz-adv-x="944" d="M25 1167q0 199 63.5 284t142.5 85q82 0 145.5 -85t63.5 -284q0 -201 -63.5 -285.5t-145.5 -84.5q-80 0 -143 84.5t-63 285.5zM145 1167q0 -313 86 -313q88 0 88 313q0 311 -88 312q-86 -1 -86 -312zM221 23l412 1513l88 -23l-412 -1513zM504 371q0 199 63.5 283.5 t143.5 84.5q82 0 145.5 -85t63.5 -283q0 -201 -63.5 -286t-145.5 -85q-80 0 -143.5 85t-63.5 286zM625 371q0 -313 86 -314q88 0 88 314q0 311 -88 311q-86 0 -86 -311z" />
<glyph unicode="&#x26;" horiz-adv-x="788" d="M41 360q0 131 41 224.5t119 195.5l39 51l-21 82q-47 184 -47 344q0 121 59.5 200t149.5 79q82 0 128 -61.5t46 -169.5q0 -211 -147 -426l-27 -39l18 -72q94 -369 150 -514q35 53 45 216t-37 214l-61 45q-14 10 -15 16q0 10 15 11h280q12 0 12 -11q0 -12 -12 -18l-65 -61 q0 -225 -23.5 -344t-79.5 -187q18 -37 45 -37q25 0 50.5 22.5t39.5 45.5q4 8 11.5 7t7.5 -11q0 -57 -38 -109.5t-110 -52.5q-63 0 -106 43q-59 -43 -143 -43q-152 0 -238 99t-86 261zM186 389q0 -129 53.5 -210t125.5 -81q57 0 86 33q-76 162 -150 455l-25 98 q-90 -102 -90 -295zM292.5 1335.5q-16.5 -102.5 20.5 -233.5l33 -129l21 28q88 123 88 295q0 141 -76 142q-70 0 -86.5 -102.5z" />
<glyph unicode="'" horiz-adv-x="274" d="M76 1473q0 37 16.5 62.5t45 25.5t45 -26t16.5 -62q0 -20 -6.5 -90t-14.5 -170.5t-12 -147.5q-6 -55 -28.5 -55t-28.5 55q-4 47 -12.5 147.5t-14.5 170.5t-6 90z" />
<glyph unicode="(" horiz-adv-x="462" d="M74 782q0 182 36.5 332t94 238t115 138t106.5 60q14 2 17 -11t-9 -19q-72 -35 -136.5 -225.5t-64.5 -512.5q0 -340 64.5 -535.5t136.5 -230.5q12 -6 9 -19t-17 -11q-51 10 -107.5 60t-114 141.5t-94 246.5t-36.5 348z" />
<glyph unicode=")" horiz-adv-x="462" d="M19.5 -3q-3.5 13 9.5 19q72 35 136 230.5t64 535.5q0 322 -64.5 512.5t-135.5 225.5q-12 6 -9 19t17 11q49 -10 106.5 -60t114.5 -138t94 -237.5t37 -332.5q0 -193 -37 -348t-94 -246.5t-113.5 -141.5t-107.5 -60q-14 -2 -17.5 11z" />
<glyph unicode="*" horiz-adv-x="569" d="M50 1330q3 9 11 7l175 -22l36 211q2 10 12.5 10t12.5 -10l37 -211l174 22q8 2 11 -7t-5 -13l-166 -96l115 -215q4 -8 -2 -14.5t-15 -0.5l-159 148l-164 -148q-8 -6 -14.5 0t-2.5 15l115 215l-166 96q-8 4 -5 13z" />
<glyph unicode="+" d="M98 467v102h465v467h103v-467h464v-102h-464v-467h-103v467h-465z" />
<glyph unicode="," horiz-adv-x="198" d="M14 -240q0 2 5.5 8.5t13.5 15.5t12 15q39 61 53.5 122t-2.5 79q-33 4 -52 32.5t-19 74t20.5 73t52.5 27.5q76 0 76 -141q0 -102 -35 -180.5t-66.5 -107t-47.5 -28.5q-11 0 -11 10z" />
<glyph unicode="-" horiz-adv-x="393" d="M57 606v86h279v-86h-279z" />
<glyph unicode="." horiz-adv-x="198" d="M25 102q0 43 18 74t55 31q39 0 57.5 -31t18.5 -74q0 -41 -18.5 -71.5t-57.5 -30.5q-37 0 -55 30.5t-18 71.5z" />
<glyph unicode="/" horiz-adv-x="462" d="M0 20l356 1516l107 -20l-357 -1516z" />
<glyph unicode="0" horiz-adv-x="628" d="M57 850q0 135 12.5 248.5t39 217t80 162t127 58.5t126 -58.5t80 -162t38.5 -217t11 -248.5q0 -410 -56 -630t-200 -220q-145 0 -201.5 220t-56.5 630zM209 856q0 -231 5 -375.5t18.5 -229.5t33 -117t50 -32t49 32t32 117t18.5 230.5t5 374.5q0 324 -23.5 451t-81.5 127 q-59 0 -82.5 -127t-23.5 -451z" />
<glyph unicode="1" horiz-adv-x="393" d="M8 1378q0 10 21 17q57 18 112.5 56t79.5 71q10 14 19 14h24q10 0 10 -10q0 -18 -3 -93t-3 -130v-1156q0 -39 19 -57l61 -59q14 -14 14 -19q0 -12 -12 -12h-307q-12 0 -12 12q0 4 14 19l61 59q18 18 19 57v1141q0 18 -14 25l-93 51q-10 6 -10 14z" />
<glyph unicode="2" horiz-adv-x="548" d="M25 1210q16 137 92 231.5t172 94.5t150.5 -86t54.5 -250q0 -354 -195 -665q-100 -162 -100 -302q0 -78 24 -102h156q18 0 29 29l63 168q8 25 18.5 24.5t10.5 -18.5l-23 -316q0 -18 -18 -18h-414q-18 0 -4 29l41 73q-6 92 -6 111q0 176 119 393q147 266 147 604 q0 125 -19.5 174.5t-72.5 49.5q-45 0 -92 -56.5t-67.5 -102.5t-29.5 -71q-6 -20 -24 -20q-16 -1 -12 26z" />
<glyph unicode="3" horiz-adv-x="567" d="M25 389q0 27 12 27q23 0 22 -25q0 -80 54.5 -184.5t126.5 -104.5q61 0 89.5 68t28.5 256q0 162 -55 254t-125 92q-18 0 -18 14v29q0 16 18 16q74 0 127 71t53 233q0 158 -23.5 228.5t-82.5 70.5q-45 0 -92 -56.5t-67.5 -102.5t-29.5 -71q-6 -20 -24 -20q-16 0 -12 26 q16 137 92 231.5t172 94.5q98 0 158.5 -92t60.5 -258q0 -164 -53.5 -259.5t-124.5 -121.5v-4q178 -68 178 -404q0 -397 -258 -397q-82 0 -135.5 62.5t-72.5 145.5t-19 181z" />
<glyph unicode="4" horiz-adv-x="595" d="M0 469q0 12 14 55l357 987q10 25 26 25h56q18 0 18 -18v-963q20 0 29 8l67 76q8 12 14.5 12t6.5 -14v-170q0 -14 -10 -14h-107v-306q0 -39 18 -57l62 -59q14 -18 14 -23q0 -8 -12 -8h-307q-12 0 -13 12q0 2 3.5 5t6.5 7.5t5 6.5l61 59q18 18 19 57v306h-316q-12 0 -12 16 zM131 571q0 -16 16 -16h181v569h-4l-185 -518q-8 -33 -8 -35z" />
<glyph unicode="5" horiz-adv-x="577" d="M49 750l39 755q0 27 18 27q27 0 56 -14q76 -33 143 -33q76 0 148 28q55 23 61 23q6 -2 5 -16.5t-15.5 -42t-34.5 -54.5q-66 -80 -160 -80q-68 0 -98 13q-16 6 -16 -15l-21 -391h4q59 51 115 51q98 0 160.5 -126.5t62.5 -321.5q0 -553 -250 -553q-100 0 -154.5 119 t-54.5 270q0 27 13 27q23 0 22 -25q0 -76 49 -182.5t103 -106.5q63 0 92 97.5t29 345.5q0 182 -24 268t-81 86q-53 0 -154 -141q-23 -33 -38 -33q-19 0 -19 25z" />
<glyph unicode="6" horiz-adv-x="628" d="M57 850q0 686 258 686q78 0 130.5 -67.5t71 -149.5t18.5 -168q0 -23 -17 -23q-18 0 -18 23q0 61 -56.5 172t-128.5 111q-57 0 -81.5 -116t-24.5 -384h4q51 68 115 67q113 0 178 -115.5t65 -312.5q0 -92 -14 -187t-43 -184t-80 -145.5t-119 -56.5q-59 0 -103 37t-81 127 t-55.5 262t-18.5 424zM209 655q0 -305 23.5 -429t82.5 -124q55 0 80 112t25 359q0 164 -22.5 245t-82.5 81q-106 0 -106 -244z" />
<glyph unicode="7" horiz-adv-x="524" d="M25 1153v371q0 12 10 12q2 0 31 -25q6 -4 13 -11l11 -11q4 -4 9 -7t10 -3q18 0 51 26q39 31 116 31q45 0 86 -16q8 -4 19.5 -9.5t19 -8.5t9.5 -3q16 0 49 23q4 2 7 5l5 5q2 2 5 3t5 1q8 0 13 -20q6 -68 6 -111q0 -158 -99 -444q-94 -256 -94 -451q0 -129 13.5 -280.5 t25.5 -178.5q12 -31 12 -43q0 -8 -6 -8h-157q-12 0 -17 16q-23 121 -22 443q0 49 5 101t19 110l25 98q10 41 32.5 107.5t34 95t40 102.5t34.5 92q35 90 35 164q0 33 -29.5 56.5t-72.5 23.5q-147 0 -222 -252q-6 -23 -20 -22q-12 0 -12 18z" />
<glyph unicode="8" horiz-adv-x="622" d="M57 420q0 287 146 366q-145 137 -146 363q0 158 68 272.5t186 114.5q117 0 185.5 -115.5t68.5 -271.5q0 -223 -147 -363q147 -82 147 -366q0 -195 -66.5 -307.5t-187.5 -112.5q-123 0 -188.5 112.5t-65.5 307.5zM209 420q0 -317 102.5 -317.5t102.5 317.5q0 147 -28 229 t-75 82q-102 0 -102 -311zM209 1157q0 -133 25.5 -230.5t76.5 -97.5q49 0 76 98.5t27 229.5q0 276 -102.5 276t-102.5 -276z" />
<glyph unicode="9" horiz-adv-x="628" d="M57 1028q0 133 23.5 242.5t83 187.5t149.5 78q137 0 197.5 -171t60.5 -579q0 -397 -53 -591.5t-194 -194.5q-72 0 -120 39t-70.5 104.5t-31 123t-8.5 118.5q0 23 17 23q14 0 20 -23q47 -170 80 -219q43 -63 104 -64q66 0 85.5 126t19.5 374h-4q-51 -68 -115 -67 q-113 0 -178.5 135t-65.5 358zM209 1040q0 -207 22.5 -305t82 -98t83 88t23.5 254q0 238 -24.5 346.5t-82.5 108.5q-104 -1 -104 -394z" />
<glyph unicode=":" horiz-adv-x="198" d="M25 102q0 43 18 74t55 31q39 0 57.5 -31t18.5 -74q0 -41 -18.5 -71.5t-57.5 -30.5q-37 0 -55 30.5t-18 71.5zM25 879q0 41 18 71.5t55 30.5q39 0 57.5 -30.5t18.5 -71.5q0 -43 -18.5 -74t-57.5 -31q-37 0 -55 31t-18 74z" />
<glyph unicode=";" horiz-adv-x="198" d="M14 -240q0 2 5.5 8.5t13.5 15.5t12 15q39 61 53.5 122t-2.5 79q-33 4 -52 32.5t-19 74t20.5 73t52.5 27.5q76 0 76 -141q0 -102 -35 -180.5t-66.5 -107t-47.5 -28.5q-11 0 -11 10zM25 879q0 41 18 71.5t55 30.5q39 0 57.5 -30.5t18.5 -71.5q0 -43 -18.5 -74t-57.5 -31 q-37 0 -55 31t-18 74z" />
<glyph unicode="&#x3c;" d="M94 463v110l1041 480v-113l-914 -422l914 -422v-112z" />
<glyph unicode="=" d="M98 268v103h1032v-103h-1032zM98 666v102h1032v-102h-1032z" />
<glyph unicode="&#x3e;" d="M94 -16v112l914 422l-914 422v113l1041 -480v-110z" />
<glyph unicode="?" horiz-adv-x="579" d="M53 1180q0 49 12.5 106t39 115.5t76.5 96.5t116 38q117 0 173 -86t56 -221q0 -121 -40 -225.5t-152 -260.5q-31 -43 -31 -88v-264q0 -23 -20 -22q-18 0 -23 22l-53 281q-16 82 22 129q94 115 126 216t32 220q0 78 -29.5 137.5t-81 59.5t-95.5 -53.5t-63.5 -105.5 t-29.5 -99q-4 -23 -18 -23q-17 0 -17 27zM219 102q0 104 74 105q37 0 55.5 -31t18.5 -74q0 -41 -18.5 -71.5t-55.5 -30.5q-74 0 -74 102z" />
<glyph unicode="@" horiz-adv-x="1638" d="M74 684q0 340 229 557t555 217q299 0 503 -181t204 -452q0 -184 -111 -348t-289 -164q-66 0 -112.5 34t-64 66.5t-15.5 51.5h-4q-29 -43 -97.5 -91t-150.5 -59q-20 0 -42 2t-53.5 17.5t-54 42t-40 80t-17.5 125.5q0 59 26.5 141t76 167t134.5 144.5t187 59.5 q47 0 80 -20.5t44 -37t32 -55.5l22 86h144l-144 -559q-2 -16 -7 -45t17.5 -57.5t71.5 -28.5q139 0 222 142.5t83 303.5q0 96 -44 198.5t-123 192t-204.5 146.5t-273.5 57q-279 0 -459 -203.5t-180 -551.5q0 -244 183.5 -434.5t476.5 -190.5q215 0 426 102l28 -45 q-233 -119 -452 -119q-201 0 -362 70t-254 178.5t-142 227t-49 233.5zM653 575q0 -180 150 -180q74 0 156.5 131t103.5 346q0 139 -96 140q-98 0 -206 -123.5t-108 -313.5z" />
<glyph unicode="A" horiz-adv-x="681" d="M4 12q0 6 14 21l58 57q12 12 16 51l187 1377q4 18 16 18h76q14 0 18 -23l195 -1374q4 -39 22 -55l60 -53q12 -12 12 -19q0 -12 -14 -12h-295q-14 0 -15 12q0 4 15 19l55 55q14 12 10 41l-31 215q-4 18 -18 18h-152q-8 0 -12 -14l-31 -225q-2 -20 11 -37l45 -47q2 -4 8 -9 t9 -9.5t3 -6.5q0 -12 -14 -12h-236q-12 0 -12 12zM240 481q-2 -12 6 -12h129q9 0 9 8q0 3 -1 6l-72 502h-4z" />
<glyph unicode="B" horiz-adv-x="677" d="M25 12q0 4 6 9.5t8 9.5l61 59q18 18 19 57v1242q0 39 -19 57l-61 59l-6 6q-8 8 -8 13q0 12 12 12h256q324 0 323 -379q0 -162 -39.5 -241.5t-111.5 -122.5q156 -80 156 -355q0 -438 -263 -438h-321q-12 0 -12 12zM276 102h64q68 0 89.5 71t21.5 280q0 150 -34 213 t-110 63h-31v-627zM276 831h31q78 0 111 73t33 253q0 154 -33 215.5t-111 61.5h-31v-603z" />
<glyph unicode="C" horiz-adv-x="598" d="M57 809q0 100 3 175t17.5 186.5t41 184t79 127t126.5 54.5q45 0 98 -43q14 -12 35 -12q18 0 39 24q27 31 39 31q14 0 14 -35v-487q0 -18 -12.5 -18.5t-16.5 22.5q-23 164 -71 290t-117 126q-63 0 -85 -140.5t-22 -486.5q0 -299 16.5 -455.5t43 -203t78 -46.5t89 99.5 t52 185.5t14.5 111q0 16 17 16q14 0 14 -18q0 -246 -49 -371t-176 -125q-267 0 -267 809z" />
<glyph unicode="D" horiz-adv-x="694" d="M25 12q0 4 6 9.5t8 9.5l61 59q18 18 19 57v1242q0 39 -19 57l-61 59l-6 6q-8 8 -8 13q0 12 12 12h270q162 0 246 -172t84 -557q0 -246 -21.5 -407.5t-66.5 -247.5t-101.5 -119t-140.5 -33h-270q-12 0 -12 12zM276 102h37q27 0 47.5 12.5t42 55.5t35 117.5t22.5 206 t9 313.5q0 160 -9 275.5t-22.5 182t-35 105.5t-42 51.5t-47.5 12.5h-37v-1332z" />
<glyph unicode="E" horiz-adv-x="632" d="M25 12q0 4 6 9.5t8 9.5l61 59q18 18 19 57v1242q0 39 -19 57l-61 59l-6 6q-8 8 -8 13q0 12 12 12h530q16 0 17 -18v-510q0 -12 -11 -13q-12 0 -16 15l-111 385q-12 39 -53 39h-117v-600h46q16 0 22 14l72 143q6 12 12 13q8 0 8 -13v-434q0 -10 -8 -10q-6 0 -14 14 l-70 150q-6 14 -22 14h-46v-623h117q43 0 56 37l110 393q2 12 14 13q10 0 11 -13v-514q0 -18 -17 -18h-530q-12 0 -12 12z" />
<glyph unicode="F" horiz-adv-x="632" d="M25 12q0 4 6 9.5t8 9.5l61 59q18 18 19 57v1242q0 39 -19 57l-61 59l-6 6q-8 8 -8 13q0 12 12 12h530q16 0 17 -18v-512q0 -10 -11 -11q-12 0 -16 15l-111 385q-12 39 -53 39h-117v-600h46q16 0 22 14l68 141q6 14 14 15q10 0 10 -13v-432q0 -12 -8 -12q-6 0 -12 14 l-72 150q-6 14 -22 14h-46v-578q0 -43 19 -57l76 -59q14 -14 14 -19q0 -12 -12 -12h-336q-12 0 -12 12z" />
<glyph unicode="G" horiz-adv-x="675" d="M57 809q0 100 3 175t17.5 186.5t40 184t78 127t123.5 54.5q70 0 130 -47q16 -12 30.5 -12t50.5 32q31 27 41 27q14 0 15 -35v-491q0 -14 -11 -15q-12 0 -18 21q-117 418 -221 418q-63 0 -87 -145.5t-24 -481.5q0 -223 5.5 -359.5t17.5 -214t29.5 -104.5t46.5 -27 q109 0 108 273v278q0 27 -22 45l-58 50q-10 10 -10 20q0 12 16 12h304q14 0 14 -12q0 -6 -10 -20l-60 -50q-20 -14 -20 -45v-643q0 -10 -11 -10q-12 0 -20 8l-61 55q-10 8 -20.5 8.5t-20.5 -8.5q-70 -63 -129 -63q-53 0 -95.5 28.5t-70 70.5t-47 113t-29.5 134.5 t-16.5 154.5t-7.5 154.5t-1 153.5z" />
<glyph unicode="H" horiz-adv-x="761" d="M25 12q0 2 3 5t6 7.5t5 6.5l61 59q18 18 19 57v1242q0 39 -19 57l-61 59l-6 6q-8 8 -8 13q0 12 12 12h321q12 0 13 -12q0 -2 -3 -5t-6.5 -7.5t-5.5 -6.5l-61 -59q-18 -18 -19 -57v-553h209v553q0 39 -18 57l-61 59l-7 6q-8 8 -8 13q0 12 12 12h322q12 0 12 -12 q0 -2 -3 -5t-6 -7.5t-5 -6.5l-61 -59q-18 -18 -19 -57v-1242q0 -39 19 -57l61 -59l6 -6q8 -8 8 -13q0 -12 -12 -12h-322q-12 0 -12 12q0 2 3 5t6 7.5t6 6.5l61 59q18 18 18 57v580h-209v-580q0 -39 19 -57l61 -59l6 -6q8 -8 9 -13q0 -12 -13 -12h-321q-12 0 -12 12z" />
<glyph unicode="I" horiz-adv-x="395" d="M25 12q0 2 3 5t6 7.5t5 6.5l61 59q18 18 19 57v1242q0 39 -19 57l-61 59l-6 6q-8 8 -8 13q0 12 12 12h321q12 0 13 -12q0 -2 -3 -5t-6.5 -7.5t-5.5 -6.5l-61 -59q-18 -18 -19 -57v-1242q0 -39 19 -57l61 -59l6 -6q8 -8 9 -13q0 -12 -13 -12h-321q-12 0 -12 12z" />
<glyph unicode="J" horiz-adv-x="561" d="M0 426q0 25 16.5 25t20.5 -21q45 -328 153 -328q94 0 95 148v1139q0 41 -17 57l-61 59q-14 14 -14 19q0 12 12 12h319q12 0 13 -12q0 -4 -15 -19l-61 -59q-18 -18 -19 -57v-1053q0 -203 -60 -269.5t-165 -66.5q-217 0 -217 426z" />
<glyph unicode="K" horiz-adv-x="727" d="M25 10q0 10 12 23l63 57q18 18 19 57v1242q0 41 -19 57l-61 57q-14 10 -14 23q0 10 10 10h325q10 0 10.5 -10t-12.5 -23l-63 -57q-18 -18 -19 -57v-596h5l200 602q12 35 -12 55l-63 53q-14 14 -15 23q0 10 15 10h299q14 0 14 -10q0 -8 -17 -25l-69 -69q-27 -27 -45 -84 l-158 -476l178 -720q10 -37 27 -50l70 -67q14 -14 14 -24.5t-10 -10.5h-306q-12 0 -12 10q0 2 17 23l53 71q16 23 6 56l-115 469h-4l-72 -219v-263q0 -39 19 -57l63 -57q12 -12 12.5 -22.5t-10.5 -10.5h-325q-10 0 -10 10z" />
<glyph unicode="L" horiz-adv-x="610" d="M25 12q0 4 6 9.5t8 9.5l61 59q18 18 19 57v1242q0 39 -19 57l-61 59l-6 6q-8 8 -8 13q0 12 12 12h321q12 0 13 -12q0 -2 -3 -5t-6.5 -7.5t-5.5 -6.5l-61 -59q-18 -18 -19 -57v-1287h82q43 0 54 31l127 397q6 14 12 15q10 0 10 -15v-501q0 -29 -22 -29h-502q-12 0 -12 12z " />
<glyph unicode="M" horiz-adv-x="894" d="M25 10q0 4 3 7t6 7.5t5 6.5l51 59q18 25 19 57v1242q0 33 -19 57l-51 59q-2 2 -5 6.5t-6 7.5t-3 7q0 10 12 10h250q25 0 28 -35l136 -887h4l125 887q4 35 22 35h256q12 0 12 -10q0 -6 -14 -21l-51 -59q-16 -23 -17 -57v-1242q0 -35 17 -57l51 -59q14 -14 14 -21 q0 -10 -12 -10h-287q-12 0 -12 10q0 4 14 23l43 55q14 18 15 59v992h-4l-156 -1123q-4 -16 -16 -16h-45q-6 0 -11 18l-166 1121h-4v-992q0 -41 15 -59l43 -55q14 -18 14 -23q0 -10 -12 -10h-252q-12 0 -12 10z" />
<glyph unicode="N" horiz-adv-x="729" d="M25 10q0 4 3 7t6 7.5t5 6.5l51 59q18 25 19 57v1242q0 33 -19 57l-51 59q-2 2 -5 6.5t-6 7.5t-3 7q0 10 12 10h246q18 0 24 -35l189 -880h4v768q0 37 -19 55l-57 61q-2 2 -5 6.5t-6 7.5t-3 7q0 10 12 10h270q12 0 13 -10q0 -6 -15 -21l-51 -59q-18 -25 -18 -57v-1366 q0 -23 -21 -23h-86q-31 0 -41 51l-240 1116h-4v-1020q0 -35 21 -55l55 -61q14 -14 14 -21q0 -10 -12 -10h-270q-12 0 -12 10z" />
<glyph unicode="O" horiz-adv-x="661" d="M57 809q0 727 273 727q274 0 274 -727q0 -133 -4 -234.5t-20.5 -216t-45 -187.5t-81 -122t-124 -49t-122.5 49t-80 122t-45 187.5t-20.5 216t-4.5 234.5zM225 807q0 -705 105 -705q106 0 106 705q0 627 -106 627q-105 0 -105 -627z" />
<glyph unicode="P" horiz-adv-x="665" d="M25 12q0 4 6 9.5t8 9.5l61 59q18 18 19 57v1242q0 39 -19 57l-61 59l-6 6q-8 8 -8 13q0 12 12 12h309q131 0 200.5 -88t69.5 -309q0 -203 -67.5 -313.5t-202.5 -110.5h-70v-568q0 -43 19 -57l76 -59q14 -14 14 -19q0 -12 -12 -12h-336q-12 0 -12 12zM276 817h60 q63 0 88 74t25 248q0 170 -24 232.5t-89 62.5h-60v-617z" />
<glyph unicode="Q" horiz-adv-x="688" d="M57 809q0 727 273 727q274 0 274 -727q0 -473 -78 -653q14 -25 60 -25q25 0 50.5 39t31.5 80q2 8 11 8t9 -8q0 -100 -38 -175t-99 -75q-57 0 -107 39q-45 -39 -114 -39q-72 0 -123 49t-80 122t-45 187.5t-20.5 216t-4.5 234.5zM225 807q0 -276 21 -506q37 37 76 37 q53 0 88 -43q27 170 26 512q0 627 -106 627q-105 0 -105 -627zM264 207q0 -39 22.5 -72t43.5 -33q27 0 47 54q-20 98 -72 98q-16 0 -28.5 -13.5t-12.5 -33.5z" />
<glyph unicode="R" horiz-adv-x="696" d="M25 12q0 2 3 5t6 7.5t5 6.5l61 59q18 18 19 57v1242q0 39 -19 57l-61 59l-6 6q-8 8 -8 13q0 12 12 12h256q162 0 242.5 -91t80.5 -288q0 -268 -151 -364q57 -31 94 -90.5t37 -139.5v-428q0 -18 18 -37l66 -69q16 -16 16 -22.5t-20 -6.5h-107q-66 0 -98.5 37t-32.5 94v440 q0 68 -36.5 113t-90.5 45h-35v-582q0 -39 19 -57l61 -59l6 -6q8 -8 9 -13q0 -12 -13 -12h-321q-12 0 -12 12zM276 831h31q76 0 109 72t33 254q0 154 -33 215.5t-109 61.5h-31v-603z" />
<glyph unicode="S" horiz-adv-x="569" d="M49 1280q0 256 189 256q55 0 114 -47q20 -12 31 -12q14 0 47 32q31 27 43 27q14 0 14 -23v-507q0 -10 -12 -11q-8 0 -12 15q-29 145 -94.5 284.5t-130.5 139.5q-35 0 -45.5 -24t-10.5 -73q0 -80 35 -186.5t143 -335.5q104 -223 132 -315t28 -217q0 -147 -58.5 -215 t-129.5 -68q-57 0 -115 39q-33 20 -41 20q-6 0 -65 -45q-18 -14 -25 -14q-10 0 -10 10v516q0 14 10 15q8 0 12 -15q18 -82 35 -139t44.5 -131t63 -114t78.5 -40q59 0 60 107q0 96 -41 213t-137 319q-152 320 -152 539z" />
<glyph unicode="T" horiz-adv-x="669" d="M25 1010v518q0 8 10 8h600q10 0 10 -8v-518q0 -14 -10 -15q-12 0 -17 13l-106 407q-8 23 -23 23h-75v-1291q0 -41 16 -57l62 -59q14 -14 14 -19q0 -12 -12 -12h-318q-12 0 -12 12q0 4 14 19l62 59q16 16 16 57v1291h-76q-14 0 -22 -23l-107 -407q-2 -12 -16 -13 q-10 1 -10 15z" />
<glyph unicode="U" horiz-adv-x="679" d="M8 1524q0 12 12 12h314q12 0 12 -12q0 -8 -10 -19l-64 -59q-16 -20 -16 -57v-1115q0 -84 19.5 -128t84.5 -44q96 0 97 172v1115q0 41 -17 57l-63 59q-10 10 -10 19q0 12 12 12h280q12 0 13 -12q0 -8 -10 -19l-64 -59q-16 -20 -16 -57v-1168q0 -96 -66.5 -158.5 t-171.5 -62.5q-117 0 -181.5 61.5t-64.5 159.5v1168q0 41 -16 57l-64 59q-10 11 -10 19z" />
<glyph unicode="V" horiz-adv-x="692" d="M8 1528q0 8 19 8h317q12 0 12 -8q0 -12 -10 -23l-53 -49q-29 -25 -25 -55l105 -719h4l86 719q4 29 -25 55l-49 49q-12 12 -12 23q0 8 14 8h275q18 0 18 -8q0 -12 -12 -25l-68 -67q-23 -23 -24 -54l-162 -1359q-4 -23 -21 -23h-71q-12 0 -17 16l-196 1366q-6 35 -25 54 l-68 67q-12 13 -12 25z" />
<glyph unicode="W" horiz-adv-x="966" d="M8 1528q0 8 17 8h292q16 0 17 -8q0 -10 -10 -21l-54 -59q-14 -16 -10 -41l94 -725h4l82 725q4 23 -10 37l-63 63q-12 12 -12.5 20.5t16.5 8.5h260q14 0 14 -8q0 -10 -12 -23l-66 -65q-8 -12 -6 -35l101 -723h4l79 725q4 27 -6 37l-63 63q-10 10 -10 21q0 8 18 8h260 q14 0 14 -8q0 -10 -8 -19l-69 -73q-14 -18 -19 -47l-151 -1377q0 -12 -17 -12h-59q-12 0 -17 12l-133 963h-4l-108 -963q0 -12 -17 -12h-59q-14 0 -16 12l-181 1377q-2 25 -22 47l-55 67q-15 19 -15 25z" />
<glyph unicode="X" horiz-adv-x="731" d="M8 8q0 10 19 33l67 70q25 29 33 59l166 571l-176 648q-6 25 -25 47l-67 69q-12 16 -13 23q0 8 17 8h323q14 0 15 -8q0 -10 -11 -21l-63 -55q-29 -25 -23 -47l103 -383h4l115 383q6 23 -25 47l-68 55q-12 8 -12 21q0 8 19 8h296q16 0 17 -8q0 -10 -12 -23l-70 -69 q-14 -14 -23 -47l-178 -596l168 -623q8 -31 29 -55l69 -76q20 -20 21 -31q0 -8 -16 -8h-328q-14 0 -14 10t18 29l63 67q12 16 7 41l-99 367h-4l-98 -360q-10 -31 6 -48l68 -67q18 -18 18 -28.5t-14 -10.5h-305q-17 0 -17 8z" />
<glyph unicode="Y" horiz-adv-x="665" d="M8 1528q0 8 15 8h292q16 0 16.5 -10t-14.5 -21l-63 -59q-12 -12 -6 -39l92 -453h4l96 453q6 27 -8 39l-65 59q-14 10 -14.5 20.5t18.5 10.5h270q16 0 16 -8t-14 -23l-68 -69q-14 -16 -20 -47l-145 -689v-553q0 -39 18 -57l61 -59l7 -6q8 -8 8 -13q0 -12 -12 -12h-322 q-12 0 -12 12q0 2 3 5t6 7.5t5 6.5l61 59q18 18 19 57v490l-152 752q-2 25 -22 47l-58 69q-12 19 -12 23z" />
<glyph unicode="Z" horiz-adv-x="641" d="M49 8q0 14 2 25l363 1405h-148q-27 0 -39 -27l-127 -387q-12 -31 -22 -31q-16 0 -17 25v506q0 12 17 12h493q12 0 13 -12l-4 -21l-361 -1401h160q39 0 47 25l133 391q12 27 21 27q12 0 12 -27v-502q0 -16 -19 -16h-516q-8 0 -8 8z" />
<glyph unicode="[" horiz-adv-x="348" d="M74 -14v1564h254v-8l-111 -112v-1324l111 -112v-8h-254z" />
<glyph unicode="\" horiz-adv-x="569" d="M-152 1505h113l760 -1505h-113z" />
<glyph unicode="]" horiz-adv-x="348" d="M20 -6l111 112v1324l-111 112v8h254v-1564h-254v8z" />
<glyph unicode="^" d="M190 686l377 748h95l376 -748h-112l-312 617l-311 -617h-113z" />
<glyph unicode="_" horiz-adv-x="1024" d="M0 -154h1024v-102h-1024v102z" />
<glyph unicode="`" horiz-adv-x="428" d="M59 1442l47 88q10 12 35 -8l230 -187l-13 -20l-278 104q-29 11 -21 23z" />
<glyph unicode="a" horiz-adv-x="595" d="M49 332q0 172 45 254t215 217q29 23 35 45t6 90t-18.5 90.5t-67.5 22.5q-41 0 -96 -27t-86 -57q-6 -6 -16 -6q-6 0 -7 10q0 29 78 98.5t154 69.5t139.5 -58.5t63.5 -197.5v-744q0 -51 26 -51q37 0 60 35q8 8 10 8q6 0 6 -10q-6 -47 -38 -84t-69 -37q-70 0 -120 78 q-70 -78 -142 -78q-178 0 -178 332zM201 369q0 -115 8 -177.5t21.5 -83t37.5 -20.5q33 0 57.5 38t24.5 83v536h-4q-86 -74 -115.5 -148t-29.5 -228z" />
<glyph unicode="b" horiz-adv-x="608" d="M10 1528q0 8 13 8h194q12 0 12 -12v-457h4q63 72 136 72q39 0 67.5 -16.5t58 -65.5t45 -156.5t15.5 -271.5q0 -166 -11.5 -286t-27.5 -185.5t-41.5 -102.5t-49.5 -46t-54 -9q-86 0 -160 78h-4l-94 -70q-12 -8 -19 -8q-8 0 -8 10v1440q0 10 -8 16l-60 47q-8 7 -8 15z M229 227q0 -61 27 -100t66 -39q23 0 35 15.5t21 70.5t13 163.5t4 291.5q0 184 -9 277t-23.5 119t-43.5 26q-27 0 -58.5 -43t-31.5 -111v-670z" />
<glyph unicode="c" horiz-adv-x="512" d="M53 614q0 254 63.5 389.5t178.5 135.5q135 0 176 -207q4 -16 -6 -17q-6 0 -12 11q-45 68 -77 96.5t-71 28.5q-53 0 -72.5 -88.5t-19.5 -348.5q0 -207 12.5 -323.5t34 -159.5t55.5 -43q74 0 136 109q10 16 18 16q7 0 7 -7q0 -3 -1 -7q-51 -199 -180 -199 q-123 0 -182.5 147.5t-59.5 466.5z" />
<glyph unicode="d" horiz-adv-x="608" d="M53 629q0 162 16.5 270.5t46 156.5t58.5 65.5t66 17.5q72 0 135 -72h4v371q0 10 -8 16l-60 59q-10 6 -10 14.5t14 8.5h195q12 0 12 -12v-1411q0 -14 2 -19l64 -71q10 -6 10 -14.5t-14 -8.5h-191q-14 0 -14 8v70h-4q-66 -78 -137 -78q-31 0 -54.5 9t-49 46t-42 102.5 t-28 185.5t-11.5 286zM213 628.5q0 -184.5 4 -293t13.5 -162.5t21.5 -69.5t35 -15.5q39 0 65.5 45t26.5 119v645q0 68 -32 111t-58 43q-29 0 -43.5 -26t-23.5 -119t-9 -277.5z" />
<glyph unicode="e" horiz-adv-x="561" d="M53 643q0 231 62.5 363.5t171.5 132.5q221 0 221 -385v-127q0 -25 -19 -25h-276v-158q0 -195 29.5 -275.5t99.5 -80.5q47 0 78 22.5t65 73.5q6 10 15 11q8 0 6 -13q-20 -80 -68.5 -131t-120.5 -51q-139 0 -201.5 149.5t-62.5 493.5zM213 680h152v205q0 166 -78 166 q-74 0 -74 -166v-205z" />
<glyph unicode="f" horiz-adv-x="335" d="M-3 1129q0 3 2 6q3 4 7 4h64q16 0 16 18v172q0 100 51 153.5t129 53.5q68 0 113 -55.5t45 -118.5q0 -12 -8 -12t-21 16q-61 82 -114 82q-51 0 -52 -86v-205q0 -18 17 -18h61q4 0 7 -4.5t1 -10.5t-8 -10l-61 -63q-16 -20 -17 -37v-901q0 -14 2 -19l76 -71q8 -8 8 -15 q0 -8 -12 -8h-280q-12 0 -12.5 8t7.5 15l64 71q4 4 4 19v901q0 14 -18 37l-62 63q-9 6 -9 15z" />
<glyph unicode="g" horiz-adv-x="608" d="M53 629q0 164 15.5 271.5t46 156.5t60.5 65.5t73 16.5q84 0 141 -78h4l99 67q10 10 20 10.5t10 -10.5v-888q0 -158 -16.5 -261.5t-50 -156.5t-72.5 -72.5t-96 -19.5q-98 0 -156.5 68.5t-58.5 111.5q0 14 8 14q6 0 18 -16q70 -90 162 -90q59 0 89 58t30 202h-4 q-59 -78 -137 -78q-31 0 -54.5 9t-49 46t-42 102.5t-28 185.5t-11.5 286zM213 628.5q0 -184.5 4 -293t13.5 -162.5t21.5 -69.5t35 -15.5q39 0 65.5 45t26.5 119v606q0 90 -30 141.5t-66 51.5q-27 0 -40.5 -27t-21.5 -119t-8 -276.5z" />
<glyph unicode="h" horiz-adv-x="630" d="M10 8q0 8 8 15l64 71q4 4 4 19v1325q0 10 -8 16l-60 59q-8 6 -8 14.5t13 8.5h194q12 0 12 -12v-457h4q68 72 142 72q78 0 124 -54.5t46 -154.5v-817q0 -14 4 -19l63 -71q8 -8 9 -15q0 -8 -13 -8h-270q-12 0 -12 8q0 6 8 15l63 71q4 4 4 19v819q0 119 -69 119 q-39 0 -71 -50.5t-32 -128.5v-759q0 -14 2 -19l64 -71q10 -6 10 -14.5t-12 -8.5h-270q-13 0 -13 8z" />
<glyph unicode="i" horiz-adv-x="315" d="M10 8q0 6 8 15l64 71q4 4 4 19v927q0 10 -6 17l-62 57q-8 12 -8 16q0 8 13 9h196q10 0 10 -13v-1013q0 -14 4 -19l64 -71q8 -8 8 -15q0 -8 -12 -8h-270q-13 0 -13 8zM80 1427q0 43 22.5 76t53 33t52 -33t21.5 -76q0 -41 -21.5 -74.5t-52 -33.5t-53 33.5t-22.5 74.5z" />
<glyph unicode="j" horiz-adv-x="315" d="M-94 -100q0 14 8 14t12 -12q27 -82 88 -82q41 0 56.5 40t15.5 163v1017q0 10 -6 17l-62 57q-8 12 -8 16q0 8 13 9h196q10 0 10 -13v-1091q0 -145 -50 -225t-130 -80q-72 0 -107.5 50t-35.5 120zM80 1427q0 43 22.5 76t53 33t52 -33t21.5 -76q0 -41 -21.5 -74.5t-52 -33.5 t-53 33.5t-22.5 74.5z" />
<glyph unicode="k" horiz-adv-x="614" d="M10 8q0 8 8 15l60 47q8 6 8 16v1364q0 10 -8 16l-60 47q-8 6 -8 14.5t13 8.5h196q10 0 10 -12v-848h4l140 350q12 25 -6 47l-39 51l-4 9q0 6 10 6h211q8 0 8 -9q0 -6 -10 -16l-37 -35q-10 -12 -25 -45l-143 -358l186 -553q8 -29 23 -41l57 -55q10 -6 10 -16.5t-10 -10.5 h-227q-8 0 -8 8q0 4 8 17l22 30q8 18 2 35l-137 408l-35 -88v-324q0 -10 9 -16l49 -47q8 -8 8 -15q0 -8 -12 -8h-260q-13 0 -13 8z" />
<glyph unicode="l" horiz-adv-x="315" d="M10 8q0 6 8 15l64 71q4 4 4 19v1325q0 10 -6 16l-62 59q-8 8 -8 15q0 8 13 8h196q10 0 10 -12v-1411q0 -14 4 -19l64 -71q8 -8 8 -15q0 -8 -12 -8h-270q-13 0 -13 8z" />
<glyph unicode="m" horiz-adv-x="909" d="M10 8q0 6 8 15l64 71q4 4 4 19v927q0 10 -6 17l-62 57q-8 12 -8 16q0 8 13 9h196q10 0 10 -13v-59h4q68 72 142 72q82 0 131 -72q68 72 156 72q72 0 116.5 -54.5t44.5 -154.5v-817q0 -14 4 -19l64 -71q8 -6 8 -14.5t-12 -8.5h-271q-12 0 -12 8t10 15l62 71q4 4 4 19v819 q0 119 -57 119q-35 0 -66 -50.5t-31 -128.5v-759q0 -14 4 -19l50 -71q6 -6 6 -14.5t-13 -8.5h-237q-12 0 -12 8q0 6 8 15l47 71q4 4 4 19v819q0 119 -57 119q-37 0 -67 -50.5t-30 -128.5v-759q0 -14 4 -19l64 -71q8 -8 8 -15q0 -8 -12 -8h-270q-13 0 -13 8z" />
<glyph unicode="n" horiz-adv-x="630" d="M10 8q0 8 8 15l64 71q4 4 4 19v927q0 10 -6 17l-62 57q-8 12 -8 16q0 8 13 9h196q10 0 10 -13v-59h4q68 72 142 72q78 0 124 -54.5t46 -154.5v-817q0 -14 4 -19l63 -71q8 -8 9 -15q0 -8 -13 -8h-270q-12 0 -12 8q0 6 8 15l63 71q4 4 4 19v819q0 119 -69 119 q-39 0 -71 -50.5t-32 -128.5v-759q0 -14 2 -19l64 -71q10 -6 10 -14.5t-12 -8.5h-270q-13 0 -13 8z" />
<glyph unicode="o" horiz-adv-x="591" d="M53 618q0 520 242 521q244 0 244 -521q0 -350 -64.5 -484t-179.5 -134q-72 0 -122 46t-85 189t-35 383zM213 618q0 -223 10 -341.5t26.5 -153.5t45.5 -35q31 0 47 35t26.5 153.5t10.5 341.5q0 174 -10.5 270.5t-27.5 129.5t-46 33t-45.5 -33t-26.5 -129.5t-10 -270.5z " />
<glyph unicode="p" horiz-adv-x="608" d="M10 -264q0 8 8 16l64 72q4 2 4 16v1213q0 12 -8 14l-60 47q-8 8 -8 16.5t13 8.5h196q10 0 10 -13v-59h4q63 72 136 72q39 0 67.5 -16.5t58 -65.5t45 -156.5t15.5 -271.5q-2 -166 -13.5 -286t-27.5 -185.5t-43 -102.5t-50.5 -46t-53.5 -9q-76 0 -134 78h-4v-238 q0 -14 2 -16l64 -72q10 -10 10 -16t-12 -6h-270q-13 0 -13 6zM229 240q0 -61 32 -106.5t69 -45.5q25 0 37 31t20 149.5t8 360.5q0 184 -9 277t-23.5 119t-43.5 26q-27 0 -58.5 -43t-31.5 -111v-657z" />
<glyph unicode="q" horiz-adv-x="612" d="M53 629q0 133 11.5 229t29 149.5t46 84t53 39t59.5 8.5q74 0 149 -72h5l90 61q10 10 20 10.5t10 -10.5v-1288q0 -14 2 -16l64 -72q10 -10 10 -16t-14 -6h-266q-14 0 -14.5 6t9.5 16l64 72q2 2 2 16v238h-4q-70 -78 -141 -78q-31 0 -54.5 9t-49 46t-42 102.5t-28 185.5 t-11.5 286zM213 629q0 -240 9 -359.5t22.5 -150.5t40.5 -31q37 0 67.5 49t30.5 115v606q0 90 -25.5 141.5t-64.5 51.5q-31 0 -46.5 -29t-24.5 -121t-9 -272z" />
<glyph unicode="r" horiz-adv-x="454" d="M10 8q0 8 8 15l64 71q4 4 4 19v927q0 10 -8 17l-60 57q-8 8 -8 16.5t13 8.5h196q10 0 10 -13v-69h4q66 82 115 82q47 0 79 -58.5t32 -115.5q0 -18 -10 -19q-8 0 -17 19q-31 78 -106 77q-43 0 -70 -54t-27 -134v-741q0 -14 2 -19l70 -71q8 -6 8 -14.5t-12 -8.5h-274 q-13 0 -13 8z" />
<glyph unicode="s" horiz-adv-x="491" d="M53 920q0 94 48.5 156.5t107.5 62.5q66 0 121 -66l59 53q12 12 14 13q8 0 9 -21v-385q0 -16 -13 -16q-8 0 -12 18q-23 113 -61 213q-41 102 -95 103q-51 0 -51 -111q0 -133 125 -334q133 -213 133 -401q0 -90 -53 -147.5t-123 -57.5q-72 0 -123 66l-53 -56 q-16 -10 -20 -10q-6 0 -7 14v394q0 14 8.5 14t12.5 -19q61 -315 156 -315q66 0 65 88q0 156 -131 369q-117 195 -117 375z" />
<glyph unicode="t" horiz-adv-x="360" d="M10 1133q0 12 29 14q100 18 100 254q0 18 17 18h61q12 0 12 -14v-236q0 -18 17 -18h47q4 0 7 -4t1 -10.5t-8 -10.5l-47 -53q-16 -27 -17 -37v-874q0 -33 14.5 -53.5t35.5 -20.5q37 0 63 43q8 8 12 8q7 0 8 -6q0 -3 -2 -6q-33 -127 -141 -127q-70 0 -101.5 44t-31.5 163 v829q0 20 -6 27l-60 57q-10 11 -10 13z" />
<glyph unicode="u" horiz-adv-x="630" d="M10 1130q0 8 13 9h196q10 0 10 -13v-919q0 -119 80 -119q39 0 65.5 45t26.5 119v788q0 10 -6 17l-59 57q-10 10 -10 16q0 8 12 9h197q10 0 10 -13v-1013q0 -14 2 -19l63 -71q10 -6 10.5 -14.5t-14.5 -8.5h-190q-14 0 -15 8v70h-4q-66 -78 -137 -78q-174 0 -174 209v831 q0 10 -6 17l-62 57q-8 12 -8 16z" />
<glyph unicode="v" horiz-adv-x="538" d="M8 1130q0 8 12 9h236q12 0 12 -6q0 -8 -8 -17l-51 -59q-12 -12 -8 -33l84 -569h4l73 569q4 20 -8 33l-53 59q-8 12 -8 17q0 6 12 6h213q12 0 12 -9q0 -6 -10 -16l-49 -49q-12 -12 -16 -37l-127 -991q-4 -37 -23 -37h-57q-18 0 -25 31l-147 997q-4 25 -17 37l-43 49 q-8 12 -8 16z" />
<glyph unicode="w" horiz-adv-x="788" d="M8 1130q0 8 12 9h232q12 0 12 -9q0 -4 -8 -16l-43 -49q-14 -23 -12 -39l84 -571h4l71 542q2 27 -20 58l-43 59q-8 12 -8 16q0 8 12 9h215q14 0 14 -9q0 -2 -4 -8t-4 -8l-49 -61q-23 -31 -20 -56l82 -542h4l73 581q2 18 -6 31l-43 47q0 2 -4 8t-4 8q0 8 14 9h199 q12 0 12 -9q0 -4 -8 -16l-49 -51q-14 -14 -21 -51l-124 -983q-4 -29 -23 -29h-41q-14 0 -20 23l-99 647h-4l-84 -641q-4 -29 -16 -29h-43q-20 0 -25 23l-147 1005q-4 25 -17 37l-43 49q-8 12 -8 16z" />
<glyph unicode="x" horiz-adv-x="600" d="M8 8q0 6 8 15l70 71q16 16 29 58l127 403l-133 469q-8 25 -15 31l-61 59q-8 8 -8 16.5t12 8.5h260q12 0 12 -8.5t-8 -16.5l-49 -57q-12 -12 -4 -41l65 -238h4l74 250q6 18 -4 29l-49 57q-8 12 -8 16q0 8 14 9h209q12 0 12 -8.5t-8 -16.5l-51 -51q-20 -20 -25 -37 l-127 -383l152 -532q4 -12 24 -33l52 -51q10 -6 10 -19q0 -8 -12 -8h-263q-14 0 -14 8q0 6 8 15l41 55q13 18 13 38q0 12 -5 25l-73 267h-4l-84 -271q-10 -35 16 -57l59 -57q8 -8 9 -15q0 -8 -15 -8h-245q-15 0 -15 8z" />
<glyph unicode="y" horiz-adv-x="530" d="M8 1130q0 8 12 9h228q12 0 12 -8.5t-6 -16.5l-39 -51q-10 -18 -8 -39l74 -594h4l59 594q4 25 -10 39l-45 51q-8 8 -8 16.5t12 8.5h217q12 0 12 -9q0 -10 -8 -16l-51 -49q-12 -12 -17 -37l-137 -1108q-12 -94 -49 -142t-88 -48q-68 0 -106.5 66.5t-38.5 127.5q0 14 8 15 q10 0 16 -15q18 -37 28.5 -55.5t29 -34.5t38.5 -16q66 0 66 116q0 74 -14 181l-123 913q-4 20 -15 31l-45 55q-8 12 -8 16z" />
<glyph unicode="z" horiz-adv-x="538" d="M53 8v15l264 1046h-98q-27 0 -39 -29l-94 -280q-6 -23 -16.5 -23t-10.5 17v368q0 16 19 17h377q10 0 10 -11q0 -8 -2 -14l-246 -1044h109q33 0 41 26l96 289q4 20 14 21q8 0 8 -21v-371q0 -14 -16 -14h-410q-6 0 -6 8z" />
<glyph unicode="{" horiz-adv-x="425" d="M74 768q0 6 8 10q66 14 65 125q0 20 2.5 85t1.5 120t-10 113q-39 264 248 329q14 2 17.5 -11t-9.5 -17q-102 -39 -117.5 -115t15.5 -231q47 -348 -84 -408q131 -59 84 -408q-31 -156 -15.5 -231.5t117.5 -114.5q12 -4 9 -17t-17 -11q-287 66 -248 329q8 57 9.5 112.5 t-1 120t-2.5 85.5q0 113 -65 127q-8 2 -8 8z" />
<glyph unicode="|" horiz-adv-x="454" d="M176 -512v2048h103v-2048h-103z" />
<glyph unicode="}" horiz-adv-x="425" d="M19.5 -3q-3.5 13 9.5 17q102 39 117.5 115t-15.5 231q-47 348 84 408q-131 59 -84 408q31 156 15.5 231.5t-117.5 114.5q-12 4 -9 17t17 11q287 -66 248 -329q-8 -57 -9.5 -112.5t1 -120t2.5 -85.5q0 -111 65 -125q8 -4 8 -10t-8 -8q-66 -14 -65 -127q0 -20 -2.5 -85 t-1.5 -120t10 -113q39 -264 -248 -329q-14 -2 -17.5 11z" />
<glyph unicode="~" d="M141 463q92 176 256 176q80 0 228 -66q14 -6 43.5 -19t47 -20.5t41 -16.5t42 -13t35.5 -4q39 0 74.5 24.5t55 50t50.5 72.5l73 -74q-41 -55 -67.5 -85.5t-77.5 -60.5t-111 -30q-86 0 -208 68q-127 72 -236 72q-104 0 -172 -148z" />
<glyph unicode="&#xa1;" horiz-adv-x="299" d="M66 129l61 1006q4 33 22.5 32.5t22.5 -32.5l61 -1006q10 -129 -83.5 -129t-83.5 129zM76 1434q0 41 18.5 71.5t55.5 30.5q74 0 73 -102q0 -104 -73 -105q-37 0 -55.5 31t-18.5 74z" />
<glyph unicode="&#xa2;" horiz-adv-x="628" d="M63 733q0 258 72 382t156 136l-8 117h102l-8 -117q76 -10 132 -107t56 -233q0 -20 -16 -20q-18 0 -19 20q0 76 -46 160t-107 94v-911q61 10 107 96t46 158q0 20 19 20q16 0 16 -20q0 -135 -56 -232.5t-132 -107.5l8 -102h-102l8 102q-96 10 -162 160.5t-66 404.5z M201 733q0 -223 25.5 -344t64.5 -127v895q-23 -4 -42.5 -42t-33.5 -137.5t-14 -244.5z" />
<glyph unicode="&#xa3;" horiz-adv-x="571" d="M25 766v86h102q0 2 -28.5 98.5t-42 171t-13.5 156.5q0 127 61.5 192.5t163.5 65.5q117 0 178.5 -99.5t61.5 -246.5q0 -20 -14 -21q-16 0 -19 21q-14 96 -66.5 170t-127.5 74q-106 0 -107 -136q0 -137 72 -362l12 -36t14 -48h205v-86h-184q14 -104 14 -180 q0 -59 -15.5 -139t-37 -164t-25.5 -113q-6 -39 13 -39h159q23 0 46.5 36t76.5 169q8 18 23 18q16 0 12 -16l-47 -313q-4 -25 -31 -25h-438q-12 0 -12 12q0 14 8 33l35 78q33 72 61.5 202t28.5 257q0 88 -21 184h-118z" />
<glyph unicode="&#xa4;" d="M63 172l201 201q-88 109 -88 264.5t88 263.5l-201 197l91 90l196 -201q109 88 264 88q162 0 265 -88l200 201l86 -90l-196 -197q88 -109 88 -264.5t-88 -263.5l196 -201l-86 -86l-200 197q-109 -88 -264.5 -88t-264.5 88l-196 -197zM283 637q0 -137 97 -238.5t234 -101.5 q139 0 237.5 101.5t98.5 238.5q0 135 -98 235.5t-238 100.5q-137 0 -234 -101.5t-97 -234.5z" />
<glyph unicode="&#xa5;" horiz-adv-x="673" d="M12 1528q0 8 17 8h278q16 0 17 -8q0 -2 -11 -23l-59 -57q-20 -16 -16 -41l108 -520h4l113 518q4 20 -19 43l-57 57q-12 16 -12 23q0 8 16 8h252q18 0 19 -8q0 -4 -13 -25l-69 -67q-10 -8 -21 -47l-102 -467h127v-86h-146l-24 -113h170v-86h-176v-490q0 -35 22 -57l62 -59 q14 -10 14 -19q0 -12 -12 -12h-316q-12 0 -12 12q0 8 14 19l62 59q23 23 22 57v490h-178v86h156l-23 113h-133v86h115l-97 467q-8 33 -22 47l-59 67q0 4 -5.5 12.5t-5.5 12.5z" />
<glyph unicode="&#xa6;" horiz-adv-x="454" d="M176 -358v716h103v-716h-103zM176 666v716h103v-716h-103z" />
<glyph unicode="&#xa7;" horiz-adv-x="569" d="M18 784q0 168 136 207q-98 168 -99 330q0 100 49.5 156.5t131.5 56.5q55 0 110 -45q14 -12 31 -12q14 0 47 32q31 27 43 27q14 0 14 -23v-507q0 -10 -12 -11q-8 0 -12 15q-31 154 -95.5 295t-134.5 141q-53 0 -53 -100q0 -70 40 -155t163 -267q104 -154 145 -251.5 t41 -185.5q0 -154 -133 -208q94 -166 94 -302q0 -131 -53 -189t-121 -58q-55 0 -114 39q-33 20 -41 20q-6 0 -66 -45q-18 -14 -25 -14q-10 0 -10 10v516q0 14 10 14q8 0 13 -14q14 -68 25.5 -111t34 -112.5t44 -110.5t54 -72.5t69.5 -31.5q55 0 55 98q0 90 -46 183.5 t-156 258.5q-179 262 -179 426zM135 827q0 -98 207 -413l49 -74q55 27 55 98.5t-43 152.5t-172 275q-6 12 -41 64q-55 -25 -55 -103z" />
<glyph unicode="&#xa8;" horiz-adv-x="477" d="M57 1419.5q0 28.5 20.5 46t49.5 17.5q68 0 68 -64q0 -29 -19.5 -48t-48.5 -19q-27 0 -48.5 19.5t-21.5 48zM283 1419.5q0 28.5 20.5 46t48.5 17.5q68 0 68 -64q0 -29 -19.5 -48t-48.5 -19q-27 0 -48 19.5t-21 48z" />
<glyph unicode="&#xa9;" horiz-adv-x="1146" d="M23 768q0 338 147 553t403 215t403.5 -215t147.5 -553t-147.5 -553t-403.5 -215t-403 215t-147 553zM156 768q0 -330 103 -514t314 -184t314.5 184t103.5 514t-103.5 514t-314.5 184t-314 -184t-103 -514zM377 788q0 74 2 131.5t13 141.5t29.5 139t56.5 94t91 37 q41 0 74 -33q20 -8 27 -8q8 0 28.5 20.5t30.5 20.5t10 -24v-365q0 -14 -10 -14q-8 0 -12 16q-18 121 -53 216t-89 95q-43 0 -54 -99t-11 -370q0 -225 9 -342.5t25.5 -151.5t45.5 -34q47 0 94 95.5t47 197.5q0 16 14.5 16t14.5 -16q0 -47 -8.5 -102.5t-27.5 -120t-59 -106.5 t-96 -42q-192 0 -192 608z" />
<glyph unicode="&#xaa;" horiz-adv-x="442" d="M39 1061q0 98 32.5 146t137.5 128q25 18 24 64q0 80 -57 80q-63 0 -102 -39q-10 -10 -18.5 -10t-8.5 10q0 8 16.5 29.5t55.5 44t86 22.5q49 0 90 -35t41 -119v-446q0 -29 18 -29q27 0 33 15q6 10 12 10q8 0 2 -21q-23 -59 -67 -59q-43 0 -86 43q-43 -43 -109 -43 q-100 0 -100 209zM141 1073q0 -98 9.5 -131t31.5 -33q20 0 35.5 22.5t15.5 51.5v317h-4q-55 -41 -71.5 -90t-16.5 -137z" />
<glyph unicode="&#xab;" horiz-adv-x="606" d="M66 856q-16 23 0 45l223 240q12 14 27.5 6t7.5 -27l-129 -241l129 -242q8 -20 -7.5 -27.5t-27.5 6.5zM289 856q-16 23 0 45l223 240q12 14 27.5 6t7.5 -27l-129 -241l129 -242q8 -20 -7.5 -27.5t-27.5 6.5z" />
<glyph unicode="&#xac;" d="M98 666v102h1032v-547h-102v445h-930z" />
<glyph unicode="&#xad;" horiz-adv-x="393" d="M57 606v86h279v-86h-279z" />
<glyph unicode="&#xae;" horiz-adv-x="1146" d="M23 768q0 338 147 553t403 215t403.5 -215t147.5 -553t-147.5 -553t-403.5 -215t-403 215t-147 553zM156 768q0 -330 103 -514t314 -184t314.5 184t103.5 514t-103.5 514t-314.5 184t-314 -184t-103 -514zM336 207q0 6 10 16l45 43q12 10 12 43v912q0 31 -12 43l-45 43 q-10 10 -10 12q0 10 8 10h188q121 0 180.5 -66.5t59.5 -211.5q0 -195 -113 -269q96 -49 97 -170v-317q0 -10 8 -23l49 -49q6 -4 6 -16q0 -8 -10 -8h-72q-43 0 -69.5 29.5t-26.5 74.5v315q0 49 -27.5 83t-66.5 34h-27v-426q0 -25 15 -43l36 -43l7 -6q4 -6 4 -10q0 -8 -9 -8 h-229q-8 0 -8 8zM520 811h23q57 0 81.5 52t24.5 188q0 115 -24.5 158.5t-81.5 43.5h-23v-442z" />
<glyph unicode="&#xaf;" horiz-adv-x="434" d="M57 1356v82h320v-82h-320z" />
<glyph unicode="&#xb0;" horiz-adv-x="819" d="M117 1165q0 123 85 208t207.5 85t207.5 -85t85 -208t-85 -208t-207.5 -85t-207.5 85t-85 208zM188 1165q0 -92 64.5 -161.5t157 -69.5t157 69.5t64.5 161.5t-64.5 162t-157 70t-157 -70t-64.5 -162z" />
<glyph unicode="&#xb1;" d="M98 -25v103h1032v-103h-1032zM98 553v102h465v381h103v-381h464v-102h-464v-381h-103v381h-465z" />
<glyph unicode="&#xb2;" horiz-adv-x="423" d="M57 1341q10 80 60.5 137.5t111.5 57.5q63 0 100.5 -52t37.5 -149q0 -211 -131 -399q-66 -100 -66 -182q0 -45 16 -62h99q10 0 18 19l41 100q8 14 14 14q8 0 9 -10l-15 -190q0 -10 -12 -11h-268q-12 0 -4 17l22 45q0 8 -2 30.5t-2 34.5q0 98 82 238q92 152 92 354 q0 76 -12 106.5t-41 30.5q-18 0 -34.5 -8t-30 -25.5t-20.5 -28.5t-19.5 -38t-16.5 -33q-6 -12 -18 -12q-11 0 -11 16z" />
<glyph unicode="&#xb3;" horiz-adv-x="432" d="M57 848q0 16 11 16q14 0 16 -14q4 -25 15.5 -57.5t39 -70.5t58.5 -38q37 0 55 39t18 147q0 98 -34.5 152.5t-79.5 54.5q-12 0 -13 8v19q0 10 13 10q47 0 80.5 42t33.5 138q0 172 -65 172q-16 0 -31.5 -9t-28 -21.5t-23.5 -29.5t-18.5 -30.5t-13.5 -25.5l-6 -13 q-6 -12 -18 -12q-8 0 -9 16q10 80 60.5 137.5t111.5 57.5q63 0 104.5 -55.5t41.5 -155.5q0 -98 -36 -154.5t-83 -72.5v-2q119 -41 119 -244q0 -238 -170 -238q-76 0 -112 70t-36 164z" />
<glyph unicode="&#xb4;" horiz-adv-x="430" d="M57 1337l232 187q23 23 33 8l49 -88q6 -10 -21 -23l-280 -104z" />
<glyph unicode="&#xb5;" horiz-adv-x="630" d="M10 1130q0 8 13 9h196q10 0 10 -13v-919q0 -119 66 -119q45 0 75.5 45t30.5 113v794q0 10 -6 17l-59 57q-10 10 -10 16q0 8 12 9h197q10 0 10 -13v-1013q0 -14 2 -19l63 -71q10 -6 10.5 -14.5t-14.5 -8.5h-190q-14 0 -15 8v70h-4q-57 -78 -186 -78q-25 -16 -25 -78 q0 -47 47 -98l64 -72q8 -12 8 -16q0 -6 -12 -6h-193q-14 0 -14 16v1294q0 10 -6 17l-62 57q-8 12 -8 16z" />
<glyph unicode="&#xb6;" d="M102 1130q0 156 116 281t312 125h492v-45q-133 -8 -160 -39q-14 -16 -14 -168v-1261q0 -100 6 -150q4 -27 39 -37t108 -18q14 -2 21 -2v-45h-277v1704h-120v-1704h-277v45q129 14 154 32q12 10 14 25q6 29 6 150v692q-205 0 -312.5 124.5t-107.5 290.5z" />
<glyph unicode="&#xb7;" horiz-adv-x="264" d="M57 819q0 41 18.5 72t55.5 31q39 0 57.5 -31t18.5 -72q0 -43 -18.5 -73.5t-57.5 -30.5q-37 0 -55.5 30.5t-18.5 73.5z" />
<glyph unicode="&#xb8;" horiz-adv-x="374" d="M57 -262l19 29q49 -23 98 -23q27 0 44.5 17.5t17.5 45.5q0 35 -37 49.5t-82 2.5l51 161h59l-32 -102q49 6 85.5 -28.5t36.5 -84.5q0 -53 -36.5 -87.5t-90.5 -34.5q-55 0 -133 55z" />
<glyph unicode="&#xb9;" horiz-adv-x="348" d="M49 1442q0 4 10 8q94 18 136 76l4 4q4 6 6 6h18q12 0 8 -14q-6 -25 -6 -125v-695q0 -23 13 -34l38 -35l5 -4q6 -4 6 -6q0 -8 -8 -9h-205q-10 0 -11 9l11 10l41 35q8 6 8 34v687q0 10 -6 14l-60 31q-8 4 -8 8z" />
<glyph unicode="&#xba;" horiz-adv-x="442" d="M39 1198q0 174 54 256t128 82t128 -82t54 -256q0 -180 -53 -263t-129 -83q-80 0 -131 82t-51 264zM141 1198q0 -289 80 -289t80 289q0 281 -80 281t-80 -281z" />
<glyph unicode="&#xbb;" horiz-adv-x="606" d="M59 637l129 242l-129 241q-8 18 7.5 26.5t27.5 -5.5l223 -240q16 -23 0 -45l-223 -240q-12 -14 -27.5 -6.5t-7.5 27.5zM283 637l129 242l-129 241q-8 18 7 26.5t27 -5.5l224 -240q16 -23 0 -45l-224 -240q-12 -14 -27 -6.5t-7 27.5z" />
<glyph unicode="&#xbc;" horiz-adv-x="884" d="M49 1442q0 4 10 8q94 18 136 76l4 4q4 6 6 6h18q12 0 8 -14q-6 -25 -6 -125v-695q0 -23 13 -34l38 -35l5 -4q6 -4 6 -6q0 -8 -8 -9h-205q-10 0 -11 9l11 10l41 35q8 6 8 34v687q0 10 -6 14l-60 31q-8 4 -8 8zM162 23l411 1513l89 -23l-412 -1513zM451 276.5 q0 8.5 10 38.5l233 592q6 14 17 15h53q12 0 12 -11v-573q14 0 19 4l43 45q4 8 10 8q4 0 4 -8v-111q0 -8 -8 -8h-68v-180q0 -23 10 -35l41 -35q10 -10 10.5 -14t-8.5 -4h-208q-8 0 -9 8l11 10l39 35q12 12 12 35v180h-215q-8 0 -8 8.5zM545 346q0 -8 10 -8h119v340h-4 l-121 -309q-4 -13 -4 -23z" />
<glyph unicode="&#xbd;" horiz-adv-x="876" d="M49 1442q0 4 10 8q94 18 136 76l4 4q4 6 6 6h18q12 0 8 -14q-6 -25 -6 -125v-695q0 -23 13 -34l38 -35l5 -4q6 -4 6 -6q0 -8 -8 -9h-205q-10 0 -11 9l11 10l41 35q8 6 8 34v687q0 10 -6 14l-60 31q-8 4 -8 8zM162 23l411 1513l89 -23l-412 -1513zM510 727 q10 80 60.5 137.5t111.5 57.5q63 0 100 -52.5t37 -148.5q0 -211 -131 -399q-66 -100 -65 -183q0 -45 16 -61h98q10 0 19 18l41 101q6 14 14 14t8 -10l-14 -191q0 -10 -12 -10h-269q-12 0 -4 16l23 45q0 8 -2 31t-2 35q0 98 82 238q92 152 92 354q0 76 -12.5 106.5 t-41.5 30.5q-18 0 -34.5 -8t-29.5 -25.5t-20.5 -29t-19.5 -38t-16 -32.5q-6 -12 -19 -12q-10 0 -10 16z" />
<glyph unicode="&#xbe;" horiz-adv-x="968" d="M57 848q0 16 11 16q14 0 16 -14q4 -25 15.5 -57.5t39 -70.5t58.5 -38q37 0 55 39t18 147q0 98 -34.5 152.5t-79.5 54.5q-12 0 -13 8v19q0 10 13 10q47 0 80.5 42t33.5 138q0 172 -65 172q-16 0 -31.5 -9t-28 -21.5t-23.5 -29.5t-18.5 -30.5t-13.5 -25.5l-6 -13 q-6 -12 -18 -12q-8 0 -9 16q10 80 60.5 137.5t111.5 57.5q63 0 104.5 -55.5t41.5 -155.5q0 -98 -36 -154.5t-83 -72.5v-2q119 -41 119 -244q0 -238 -170 -238q-76 0 -112 70t-36 164zM246 23l411 1513l88 -23l-411 -1513zM535 276.5q0 8.5 10 38.5l233 592q6 14 17 15h53 q12 0 12 -11v-573q14 0 19 4l43 45q4 8 10 8q4 0 4 -8v-111q0 -8 -8 -8h-68v-180q0 -23 10 -35l41 -35q10 -10 10.5 -14t-8.5 -4h-208q-8 0 -9 8l11 10l38 35q12 12 13 35v180h-215q-8 0 -8 8.5zM629 346q0 -8 10 -8h119v340h-4l-121 -309q-4 -13 -4 -23z" />
<glyph unicode="&#xbf;" horiz-adv-x="579" d="M53 307q0 121 40 225.5t153 260.5q31 43 30 88v264q0 23 21 22q18 0 22 -22l54 -281q16 -82 -23 -129q-94 -115 -125.5 -216t-31.5 -220q0 -78 29.5 -137.5t80.5 -59.5t95 53.5t63.5 105.5t30.5 99q4 23 18 23q16 0 16 -27q0 -49 -12 -106t-38.5 -115.5t-77 -96.5 t-115.5 -38q-117 0 -173.5 86t-56.5 221zM197 1434q0 102 73 102q37 0 55.5 -30.5t18.5 -71.5q0 -43 -18.5 -74t-55.5 -31q-73 1 -73 105z" />
<glyph unicode="&#xc0;" horiz-adv-x="681" d="M4 12q0 6 14 21l58 57q12 12 16 51l187 1377q4 18 16 18h76q14 0 18 -23l195 -1374q4 -39 22 -55l60 -53q12 -12 12 -19q0 -12 -14 -12h-295q-14 0 -15 12q0 4 15 19l55 55q14 12 10 41l-31 215q-4 18 -18 18h-152q-8 0 -12 -14l-31 -225q-2 -20 11 -37l45 -47q2 -4 8 -9 t9 -9.5t3 -6.5q0 -12 -14 -12h-236q-12 0 -12 12zM72 1698l47 88q10 12 35 -8l229 -187l-12 -20l-279 104q-28 11 -20 23zM240 481q-2 -12 6 -12h129q12 0 8 14l-72 502h-4z" />
<glyph unicode="&#xc1;" horiz-adv-x="681" d="M4 12q0 6 14 21l58 57q12 12 16 51l187 1377q4 18 16 18h76q14 0 18 -23l195 -1374q4 -39 22 -55l60 -53q12 -12 12 -19q0 -12 -14 -12h-295q-14 0 -15 12q0 4 15 19l55 55q14 12 10 41l-31 215q-4 18 -18 18h-152q-8 0 -12 -14l-31 -225q-2 -20 11 -37l45 -47q2 -4 8 -9 t9 -9.5t3 -6.5q0 -12 -14 -12h-236q-12 0 -12 12zM240 481q-2 -12 6 -12h129q12 0 8 14l-72 502h-4zM274 1593l232 187q23 23 33 8l49 -88q6 -10 -21 -23l-280 -104z" />
<glyph unicode="&#xc2;" horiz-adv-x="681" d="M4 12q0 6 14 21l58 57q12 12 16 51l187 1377q4 18 16 18h76q14 0 18 -23l195 -1374q4 -39 22 -55l60 -53q12 -12 12 -19q0 -12 -14 -12h-295q-14 0 -15 12q0 4 15 19l55 55q14 12 10 41l-31 215q-4 18 -18 18h-152q-8 0 -12 -14l-31 -225q-2 -20 11 -37l45 -47q2 -4 8 -9 t9 -9.5t3 -6.5q0 -12 -14 -12h-236q-12 0 -12 12zM162 1577l139 221q6 16 25 17q16 0 26 -17l137 -221l-22 -16l-119 102q-25 20 -45 0l-119 -102zM240 481q-2 -12 6 -12h129q12 0 8 14l-72 502h-4z" />
<glyph unicode="&#xc3;" horiz-adv-x="681" d="M4 12q0 6 14 21l58 57q12 12 16 51l187 1377q4 18 16 18h76q14 0 18 -23l195 -1374q4 -39 22 -55l60 -53q12 -12 12 -19q0 -12 -14 -12h-295q-14 0 -15 12q0 4 15 19l55 55q14 12 10 41l-31 215q-4 18 -18 18h-152q-8 0 -12 -14l-31 -225q-2 -20 11 -37l45 -47q2 -4 8 -9 t9 -9.5t3 -6.5q0 -12 -14 -12h-236q-12 0 -12 12zM158 1581q43 166 98 166q27 0 78 -31l51 -30q14 -8 37 -9q35 0 74 82l28 -14q-18 -72 -45.5 -120t-56.5 -48q-25 0 -66 20l-47 27q-35 20 -53 21q-29 0 -72 -78zM240 481q-2 -12 6 -12h129q12 0 8 14l-72 502h-4z" />
<glyph unicode="&#xc4;" horiz-adv-x="681" d="M4 12q0 6 14 21l58 57q12 12 16 51l187 1377q4 18 16 18h76q14 0 18 -23l195 -1374q4 -39 22 -55l60 -53q12 -12 12 -19q0 -12 -14 -12h-295q-14 0 -15 12q0 4 15 19l55 55q14 12 10 41l-31 215q-4 18 -18 18h-152q-8 0 -12 -14l-31 -225q-2 -20 11 -37l45 -47q2 -4 8 -9 t9 -9.5t3 -6.5q0 -12 -14 -12h-236q-12 0 -12 12zM143 1675.5q0 28.5 20.5 46t49.5 17.5q68 0 68 -64q0 -29 -19.5 -48t-48.5 -19q-27 0 -48.5 19.5t-21.5 48zM240 481q-2 -12 6 -12h129q12 0 8 14l-72 502h-4zM369 1675.5q0 28.5 20.5 46t48.5 17.5q68 0 68 -64 q0 -29 -19.5 -48t-48.5 -19q-27 0 -48 19.5t-21 48z" />
<glyph unicode="&#xc5;" horiz-adv-x="681" d="M4 12q0 6 14 21l58 57q12 12 16 51l187 1370q-39 14 -65 51t-26 87q0 61 43 103t95 42q55 0 98 -42t43 -103q0 -94 -80 -131q2 -2 2 -5l195 -1374q4 -39 22 -55l60 -53q12 -12 12 -19q0 -12 -14 -12h-295q-14 0 -15 12q0 4 15 19l55 55q14 12 10 41l-31 215q-4 18 -18 18 h-152q-8 0 -12 -14l-31 -225q-2 -20 11 -37l45 -47q2 -4 8 -9t9 -9.5t3 -6.5q0 -12 -14 -12h-236q-12 0 -12 12zM240 481q-2 -12 6 -12h129q12 0 8 14l-72 502h-4zM276 1649q0 -98 50 -99q51 0 51 99q0 96 -51 96q-50 0 -50 -96z" />
<glyph unicode="&#xc6;" horiz-adv-x="948" d="M4 12q0 4 19 23l51 53q16 18 20 37l318 1384q8 27 22 27h449q16 0 16 -18v-510q0 -12 -10 -13q-12 0 -17 15l-110 385q-12 39 -53 39h-117v-600h45q16 0 22 14l72 143q6 12 12 13q8 0 9 -13v-434q0 -10 -9 -10q-6 0 -14 14l-70 150q-6 14 -22 14h-45v-623h117q43 0 55 37 l110 393q2 12 15 13q10 0 10 -13v-514q0 -18 -16 -18h-531q-12 0 -12 12q0 8 14 19l62 59q18 18 18 57v199q0 14 -12 14h-154q-18 0 -22 -16l-56 -240q-4 -18 3 -26l47 -51q10 -10 10 -21q0 -6 -10 -6h-222q-14 0 -14 12zM279 485q-2 -6 5 -11t13 -5h129q8 0 8 14v678h-4z " />
<glyph unicode="&#xc7;" horiz-adv-x="598" d="M57 809q0 100 3 175t17.5 186.5t41 184t79 127t126.5 54.5q45 0 98 -43q14 -12 35 -12q18 0 39 24q27 31 39 31q14 0 14 -35v-487q0 -18 -12.5 -18.5t-16.5 22.5q-23 164 -71 290t-117 126q-63 0 -85 -140.5t-22 -486.5q0 -299 16.5 -455.5t43 -203t78 -46.5t89 99.5 t52 185.5t14.5 111q0 16 17 16q14 0 14 -18q0 -215 -36 -337t-128 -149l-29 -92q49 6 86 -28.5t37 -84.5q0 -53 -36.5 -87.5t-90.5 -34.5q-55 0 -133 55l19 29q49 -23 98 -23q27 0 44 17.5t17 45.5q0 35 -36.5 49.5t-81.5 2.5l45 141q-267 0 -267 809z" />
<glyph unicode="&#xc8;" horiz-adv-x="632" d="M25 12q0 4 6 9.5t8 9.5l61 59q18 18 19 57v1242q0 39 -19 57l-61 59l-6 6q-8 8 -8 13q0 12 12 12h530q16 0 17 -18v-510q0 -12 -11 -13q-12 0 -16 15l-111 385q-12 39 -53 39h-117v-600h46q16 0 22 14l72 143q6 12 12 13q8 0 8 -13v-434q0 -10 -8 -10q-6 0 -14 14 l-70 150q-6 14 -22 14h-46v-623h117q43 0 56 37l110 393q2 12 14 13q10 0 11 -13v-514q0 -18 -17 -18h-530q-12 0 -12 12zM72 1698l47 88q10 12 35 -8l229 -187l-12 -20l-279 104q-28 11 -20 23z" />
<glyph unicode="&#xc9;" horiz-adv-x="632" d="M25 12q0 4 6 9.5t8 9.5l61 59q18 18 19 57v1242q0 39 -19 57l-61 59l-6 6q-8 8 -8 13q0 12 12 12h530q16 0 17 -18v-510q0 -12 -11 -13q-12 0 -16 15l-111 385q-12 39 -53 39h-117v-600h46q16 0 22 14l72 143q6 12 12 13q8 0 8 -13v-434q0 -10 -8 -10q-6 0 -14 14 l-70 150q-6 14 -22 14h-46v-623h117q43 0 56 37l110 393q2 12 14 13q10 0 11 -13v-514q0 -18 -17 -18h-530q-12 0 -12 12zM250 1593l231 187q23 23 33 8l49 -88q6 -10 -20 -23l-281 -104z" />
<glyph unicode="&#xca;" horiz-adv-x="632" d="M25 12q0 4 6 9.5t8 9.5l61 59q18 18 19 57v1242q0 39 -19 57l-61 59l-6 6q-8 8 -8 13q0 12 12 12h530q16 0 17 -18v-510q0 -12 -11 -13q-12 0 -16 15l-111 385q-12 39 -53 39h-117v-600h46q16 0 22 14l72 143q6 12 12 13q8 0 8 -13v-434q0 -10 -8 -10q-6 0 -14 14 l-70 150q-6 14 -22 14h-46v-623h117q43 0 56 37l110 393q2 12 14 13q10 0 11 -13v-514q0 -18 -17 -18h-530q-12 0 -12 12zM154 1577l139 221q6 16 24 17q16 0 27 -17l137 -221l-22 -16l-119 102q-25 20 -45 0l-119 -102z" />
<glyph unicode="&#xcb;" horiz-adv-x="632" d="M25 12q0 4 6 9.5t8 9.5l61 59q18 18 19 57v1242q0 39 -19 57l-61 59l-6 6q-8 8 -8 13q0 12 12 12h530q16 0 17 -18v-510q0 -12 -11 -13q-12 0 -16 15l-111 385q-12 39 -53 39h-117v-600h46q16 0 22 14l72 143q6 12 12 13q8 0 8 -13v-434q0 -10 -8 -10q-6 0 -14 14 l-70 150q-6 14 -22 14h-46v-623h117q43 0 56 37l110 393q2 12 14 13q10 0 11 -13v-514q0 -18 -17 -18h-530q-12 0 -12 12zM135 1675.5q0 28.5 20.5 46t49.5 17.5q68 0 67 -64q0 -29 -19.5 -48t-47.5 -19q-27 0 -48.5 19.5t-21.5 48zM360 1675.5q0 28.5 20.5 46t49.5 17.5 q68 0 68 -64q0 -29 -19.5 -48t-48.5 -19q-27 0 -48.5 19.5t-21.5 48z" />
<glyph unicode="&#xcc;" horiz-adv-x="395" d="M-47 1698l47 88q10 12 35 -8l229 -187l-12 -20l-279 104q-28 11 -20 23zM25 12q0 2 3 5t6 7.5t5 6.5l61 59q18 18 19 57v1242q0 39 -19 57l-61 59l-6 6q-8 8 -8 13q0 12 12 12h321q12 0 13 -12q0 -2 -3 -5t-6.5 -7.5t-5.5 -6.5l-61 -59q-18 -18 -19 -57v-1242 q0 -39 19 -57l61 -59l6 -6q8 -8 9 -13q0 -12 -13 -12h-321q-12 0 -12 12z" />
<glyph unicode="&#xcd;" horiz-adv-x="395" d="M25 12q0 2 3 5t6 7.5t5 6.5l61 59q18 18 19 57v1242q0 39 -19 57l-61 59l-6 6q-8 8 -8 13q0 12 12 12h321q12 0 13 -12q0 -2 -3 -5t-6.5 -7.5t-5.5 -6.5l-61 -59q-18 -18 -19 -57v-1242q0 -39 19 -57l61 -59l6 -6q8 -8 9 -13q0 -12 -13 -12h-321q-12 0 -12 12zM131 1593 l231 187q23 23 33 8l49 -88q6 -10 -20 -23l-281 -104z" />
<glyph unicode="&#xce;" horiz-adv-x="395" d="M25 12q0 2 3 5t6 7.5t5 6.5l61 59q18 18 19 57v1242q0 39 -19 57l-61 59l-6 6q-8 8 -8 13q0 12 12 12h321q12 0 13 -12q0 -2 -3 -5t-6.5 -7.5t-5.5 -6.5l-61 -59q-18 -18 -19 -57v-1242q0 -39 19 -57l61 -59l6 -6q8 -8 9 -13q0 -12 -13 -12h-321q-12 0 -12 12zM35 1577 l139 221q6 16 25 17q16 0 26 -17l137 -221l-22 -16l-119 102q-25 20 -45 0l-119 -102z" />
<glyph unicode="&#xcf;" horiz-adv-x="395" d="M16 1675.5q0 28.5 20.5 46t49.5 17.5q68 0 68 -64q0 -29 -19.5 -48t-48.5 -19q-27 0 -48.5 19.5t-21.5 48zM25 12q0 2 3 5t6 7.5t5 6.5l61 59q18 18 19 57v1242q0 39 -19 57l-61 59l-6 6q-8 8 -8 13q0 12 12 12h321q12 0 13 -12q0 -2 -3 -5t-6.5 -7.5t-5.5 -6.5l-61 -59 q-18 -18 -19 -57v-1242q0 -39 19 -57l61 -59l6 -6q8 -8 9 -13q0 -12 -13 -12h-321q-12 0 -12 12zM242 1675.5q0 28.5 20.5 46t48.5 17.5q68 0 68 -64q0 -29 -19.5 -48t-48.5 -19q-27 0 -48 19.5t-21 48z" />
<glyph unicode="&#xd0;" horiz-adv-x="694" d="M25 12q0 4 6 9.5t8 9.5l61 59q18 18 19 57v588h-94v88h94v566q0 39 -19 57l-61 59l-6 6q-8 8 -8 13q0 12 12 12h270q162 0 246 -172t84 -557q0 -246 -21.5 -407.5t-66.5 -247.5t-101.5 -119t-140.5 -33h-270q-12 0 -12 12zM276 102h37q27 0 47.5 12.5t42 55.5t35 117.5 t22.5 206t9 313.5q0 160 -9 275.5t-22.5 182t-35 105.5t-42 51.5t-47.5 12.5h-37v-611h99v-88h-99v-633z" />
<glyph unicode="&#xd1;" horiz-adv-x="729" d="M25 10q0 4 3 7t6 7.5t5 6.5l51 59q18 25 19 57v1242q0 33 -19 57l-51 59q-2 2 -5 6.5t-6 7.5t-3 7q0 10 12 10h246q18 0 24 -35l189 -880h4v768q0 37 -19 55l-57 61q-2 2 -5 6.5t-6 7.5t-3 7q0 10 12 10h270q12 0 13 -10q0 -6 -15 -21l-51 -59q-18 -25 -18 -57v-1366 q0 -23 -21 -23h-86q-31 0 -41 51l-240 1116h-4v-1020q0 -35 21 -55l55 -61q14 -14 14 -21q0 -10 -12 -10h-270q-12 0 -12 10zM188 1581q43 166 99 166q27 0 78 -31l51 -30q14 -8 37 -9q35 0 73 82l29 -14q-43 -168 -102 -168q-25 0 -66 20l-47 27q-35 20 -53 21 q-29 0 -72 -78z" />
<glyph unicode="&#xd2;" horiz-adv-x="661" d="M57 809q0 727 273 727q274 0 274 -727q0 -133 -4 -234.5t-20.5 -216t-45 -187.5t-81 -122t-124 -49t-122.5 49t-80 122t-45 187.5t-20.5 216t-4.5 234.5zM86 1698l47 88q10 12 35 -8l229 -187l-12 -20l-279 104q-28 11 -20 23zM225 807q0 -705 105 -705q106 0 106 705 q0 627 -106 627q-105 0 -105 -627z" />
<glyph unicode="&#xd3;" horiz-adv-x="661" d="M57 809q0 727 273 727q274 0 274 -727q0 -133 -4 -234.5t-20.5 -216t-45 -187.5t-81 -122t-124 -49t-122.5 49t-80 122t-45 187.5t-20.5 216t-4.5 234.5zM225 807q0 -705 105 -705q106 0 106 705q0 627 -106 627q-105 0 -105 -627zM264 1593l232 187q23 23 32 8l50 -88 q6 -10 -21 -23l-281 -104z" />
<glyph unicode="&#xd4;" horiz-adv-x="661" d="M57 809q0 727 273 727q274 0 274 -727q0 -133 -4 -234.5t-20.5 -216t-45 -187.5t-81 -122t-124 -49t-122.5 49t-80 122t-45 187.5t-20.5 216t-4.5 234.5zM164 1577l139 221q6 16 25 17q16 0 26 -17l138 -221l-23 -16l-119 102q-25 20 -45 0l-119 -102zM225 807 q0 -705 105 -705q106 0 106 705q0 627 -106 627q-105 0 -105 -627z" />
<glyph unicode="&#xd5;" horiz-adv-x="661" d="M57 809q0 727 273 727q274 0 274 -727q0 -133 -4 -234.5t-20.5 -216t-45 -187.5t-81 -122t-124 -49t-122.5 49t-80 122t-45 187.5t-20.5 216t-4.5 234.5zM147 1581q43 166 99 166q27 0 78 -31l51 -30q14 -8 37 -9q35 0 73 82l29 -14q-43 -168 -102 -168q-25 0 -66 20 l-47 27q-35 20 -53 21q-29 0 -72 -78zM225 807q0 -705 105 -705q106 0 106 705q0 627 -106 627q-105 0 -105 -627z" />
<glyph unicode="&#xd6;" horiz-adv-x="661" d="M57 809q0 727 273 727q274 0 274 -727q0 -133 -4 -234.5t-20.5 -216t-45 -187.5t-81 -122t-124 -49t-122.5 49t-80 122t-45 187.5t-20.5 216t-4.5 234.5zM150 1675.5q0 28.5 20 46t49 17.5q68 0 68 -64q0 -29 -19.5 -48t-48.5 -19q-27 0 -48 19.5t-21 48zM225 807 q0 -705 105 -705q106 0 106 705q0 627 -106 627q-105 0 -105 -627zM375 1675.5q0 28.5 20.5 46t48.5 17.5q68 0 68 -64q0 -29 -19.5 -48t-48.5 -19q-27 0 -48 19.5t-21 48z" />
<glyph unicode="&#xd7;" d="M141 119l400 399l-400 400l74 73l397 -401l402 401l73 -73l-401 -400l401 -399l-73 -74l-402 401l-397 -401z" />
<glyph unicode="&#xd8;" horiz-adv-x="661" d="M0 23l98 251q-41 176 -41 535q0 727 273 727q129 0 200 -164l64 164l70 -23l-99 -251q39 -166 39 -453q0 -133 -4 -234.5t-20.5 -216t-45 -187.5t-81 -122t-123.5 -49q-133 0 -197 162l-63 -162zM225 604h4l195 498q-20 332 -94 332q-104 0 -105 -627v-203zM238 426 q23 -324 92 -324q106 0 106 705q0 90 -2 119h-4z" />
<glyph unicode="&#xd9;" horiz-adv-x="679" d="M8 1524q0 12 12 12h314q12 0 12 -12q0 -8 -10 -19l-64 -59q-16 -20 -16 -57v-1115q0 -84 19.5 -128t84.5 -44q96 0 97 172v1115q0 41 -17 57l-63 59q-10 10 -10 19q0 12 12 12h280q12 0 13 -12q0 -8 -10 -19l-64 -59q-16 -20 -16 -57v-1168q0 -96 -66.5 -158.5 t-171.5 -62.5q-117 0 -181.5 61.5t-64.5 159.5v1168q0 41 -16 57l-64 59q-10 11 -10 19zM96 1698l47 88q10 12 35 -8l230 -187l-13 -20l-278 104q-29 11 -21 23z" />
<glyph unicode="&#xda;" horiz-adv-x="679" d="M8 1524q0 12 12 12h314q12 0 12 -12q0 -8 -10 -19l-64 -59q-16 -20 -16 -57v-1115q0 -84 19.5 -128t84.5 -44q96 0 97 172v1115q0 41 -17 57l-63 59q-10 10 -10 19q0 12 12 12h280q12 0 13 -12q0 -8 -10 -19l-64 -59q-16 -20 -16 -57v-1168q0 -96 -66.5 -158.5 t-171.5 -62.5q-117 0 -181.5 61.5t-64.5 159.5v1168q0 41 -16 57l-64 59q-10 11 -10 19zM272 1593l232 187q23 23 33 8l49 -88q6 -10 -21 -23l-280 -104z" />
<glyph unicode="&#xdb;" horiz-adv-x="679" d="M8 1524q0 12 12 12h314q12 0 12 -12q0 -8 -10 -19l-64 -59q-16 -20 -16 -57v-1115q0 -84 19.5 -128t84.5 -44q96 0 97 172v1115q0 41 -17 57l-63 59q-10 10 -10 19q0 12 12 12h280q12 0 13 -12q0 -8 -10 -19l-64 -59q-16 -20 -16 -57v-1168q0 -96 -66.5 -158.5 t-171.5 -62.5q-117 0 -181.5 61.5t-64.5 159.5v1168q0 41 -16 57l-64 59q-10 11 -10 19zM176 1577l139 221q6 16 25 17q16 0 27 -17l137 -221l-23 -16l-119 102q-25 20 -45 0l-118 -102z" />
<glyph unicode="&#xdc;" horiz-adv-x="679" d="M8 1524q0 12 12 12h314q12 0 12 -12q0 -8 -10 -19l-64 -59q-16 -20 -16 -57v-1115q0 -84 19.5 -128t84.5 -44q96 0 97 172v1115q0 41 -17 57l-63 59q-10 10 -10 19q0 12 12 12h280q12 0 13 -12q0 -8 -10 -19l-64 -59q-16 -20 -16 -57v-1168q0 -96 -66.5 -158.5 t-171.5 -62.5q-117 0 -181.5 61.5t-64.5 159.5v1168q0 41 -16 57l-64 59q-10 11 -10 19zM160 1675.5q0 28.5 20.5 46t48.5 17.5q68 0 68 -64q0 -29 -19.5 -48t-48.5 -19q-27 0 -48 19.5t-21 48zM385 1675.5q0 28.5 20.5 46t49.5 17.5q68 0 67 -64q0 -29 -19.5 -48t-47.5 -19 q-27 0 -48.5 19.5t-21.5 48z" />
<glyph unicode="&#xdd;" horiz-adv-x="665" d="M8 1528q0 8 15 8h292q16 0 16.5 -10t-14.5 -21l-63 -59q-12 -12 -6 -39l92 -453h4l96 453q6 27 -8 39l-65 59q-14 10 -14.5 20.5t18.5 10.5h270q16 0 16 -8t-14 -23l-68 -69q-14 -16 -20 -47l-145 -689v-553q0 -39 18 -57l61 -59l7 -6q8 -8 8 -13q0 -12 -12 -12h-322 q-12 0 -12 12q0 2 3 5t6 7.5t5 6.5l61 59q18 18 19 57v490l-152 752q-2 25 -22 47l-58 69q-12 19 -12 23zM266 1593l232 187q23 23 32 8l50 -88q6 -10 -21 -23l-280 -104z" />
<glyph unicode="&#xde;" horiz-adv-x="665" d="M25 12q0 4 6 9.5t8 9.5l61 59q18 18 19 57v1242q0 39 -19 57l-61 59l-6 6q-8 8 -8 13q0 12 12 12h321q12 0 13 -12q0 -2 -3 -5t-6.5 -7.5t-5.5 -6.5l-61 -59q-18 -18 -19 -57v-156h70q131 0 200.5 -88t69.5 -309q0 -203 -67.5 -314.5t-202.5 -111.5h-70v-263 q0 -43 19 -57l76 -59q14 -14 14 -19q0 -12 -12 -12h-336q-12 0 -12 12zM276 512h60q63 0 88 73.5t25 250.5q0 170 -24 232t-89 62h-60v-618z" />
<glyph unicode="&#xdf;" horiz-adv-x="659" d="M10 8q0 6 8 15l64 71q4 4 4 19v1112q0 147 68.5 229t167.5 82q111 0 181 -102.5t70 -276.5q0 -268 -159 -354q84 -39 138 -133.5t54 -243.5q0 -201 -59.5 -313.5t-145.5 -112.5q-63 0 -99 69.5t-36 123.5q0 18 15 18q8 0 18 -21l6 -14q6 -14 13.5 -26.5t16.5 -28 t22.5 -24.5t27.5 -9q37 0 49 71.5t12 266.5q0 160 -32.5 253t-94.5 93q-20 0 -20 16v23q0 20 20 20q59 0 79 70t20 262q0 168 -22.5 234.5t-73.5 66.5q-92 0 -93 -252v-1202q0 -10 -10 -10h-196q-13 0 -13 8z" />
<glyph unicode="&#xe0;" horiz-adv-x="595" d="M49 332q0 172 45 254t215 217q29 23 35 45t6 90t-18.5 90.5t-67.5 22.5q-41 0 -96 -27t-86 -57q-6 -6 -16 -6q-6 0 -7 10q0 29 78 98.5t154 69.5t139.5 -58.5t63.5 -197.5v-744q0 -51 26 -51q37 0 60 35q8 8 10 8q6 0 6 -10q-6 -47 -38 -84t-69 -37q-70 0 -120 78 q-70 -78 -142 -78q-178 0 -178 332zM53 1339l47 88q10 12 35 -8l230 -186l-13 -21l-278 105q-29 10 -21 22zM201 369q0 -115 8 -177.5t21.5 -83t37.5 -20.5q33 0 57.5 38t24.5 83v536h-4q-86 -74 -115.5 -148t-29.5 -228z" />
<glyph unicode="&#xe1;" horiz-adv-x="595" d="M49 332q0 172 45 254t215 217q29 23 35 45t6 90t-18.5 90.5t-67.5 22.5q-41 0 -96 -27t-86 -57q-6 -6 -16 -6q-6 0 -7 10q0 29 78 98.5t154 69.5t139.5 -58.5t63.5 -197.5v-744q0 -51 26 -51q37 0 60 35q8 8 10 8q6 0 6 -10q-6 -47 -38 -84t-69 -37q-70 0 -120 78 q-70 -78 -142 -78q-178 0 -178 332zM201 369q0 -115 8 -177.5t21.5 -83t37.5 -20.5q33 0 57.5 38t24.5 83v536h-4q-86 -74 -115.5 -148t-29.5 -228zM231 1235l232 186q23 23 33 9l49 -89q6 -10 -21 -22l-280 -105z" />
<glyph unicode="&#xe2;" horiz-adv-x="595" d="M49 332q0 172 45 254t215 217q29 23 35 45t6 90t-18.5 90.5t-67.5 22.5q-41 0 -96 -27t-86 -57q-6 -6 -16 -6q-6 0 -7 10q0 29 78 98.5t154 69.5t139.5 -58.5t63.5 -197.5v-744q0 -51 26 -51q37 0 60 35q8 8 10 8q6 0 6 -10q-6 -47 -38 -84t-69 -37q-70 0 -120 78 q-70 -78 -142 -78q-178 0 -178 332zM135 1219l139 221q6 16 25 16q16 0 27 -16l137 -221l-23 -17l-118 103q-25 20 -46 0l-118 -103zM201 369q0 -115 8 -177.5t21.5 -83t37.5 -20.5q33 0 57.5 38t24.5 83v536h-4q-86 -74 -115.5 -148t-29.5 -228z" />
<glyph unicode="&#xe3;" horiz-adv-x="595" d="M49 332q0 172 45 254t215 217q29 23 35 45t6 90t-18.5 90.5t-67.5 22.5q-41 0 -96 -27t-86 -57q-6 -6 -16 -6q-6 0 -7 10q0 29 78 98.5t154 69.5t139.5 -58.5t63.5 -197.5v-744q0 -51 26 -51q37 0 60 35q8 8 10 8q6 0 6 -10q-6 -47 -38 -84t-69 -37q-70 0 -120 78 q-70 -78 -142 -78q-178 0 -178 332zM115 1223q43 166 98 166q27 0 78 -31l51 -31q14 -8 37 -8q35 0 74 82l28 -15q-43 -168 -102 -167q-25 0 -66 20l-47 27q-35 20 -53 20q-29 0 -72 -78zM201 369q0 -115 8 -177.5t21.5 -83t37.5 -20.5q33 0 57.5 38t24.5 83v536h-4 q-86 -74 -115.5 -148t-29.5 -228z" />
<glyph unicode="&#xe4;" horiz-adv-x="595" d="M49 332q0 172 45 254t215 217q29 23 35 45t6 90t-18.5 90.5t-67.5 22.5q-41 0 -96 -27t-86 -57q-6 -6 -16 -6q-6 0 -7 10q0 29 78 98.5t154 69.5t139.5 -58.5t63.5 -197.5v-744q0 -51 26 -51q37 0 60 35q8 8 10 8q6 0 6 -10q-6 -47 -38 -84t-69 -37q-70 0 -120 78 q-70 -78 -142 -78q-178 0 -178 332zM117 1317q0 29 20.5 46t48.5 17q68 0 68 -63q0 -29 -19.5 -48.5t-48.5 -19.5q-27 0 -48 19.5t-21 48.5zM201 369q0 -115 8 -177.5t21.5 -83t37.5 -20.5q33 0 57.5 38t24.5 83v536h-4q-86 -74 -115.5 -148t-29.5 -228zM342 1317 q0 29 20.5 46t49.5 17q68 0 67 -63q0 -29 -19.5 -48.5t-47.5 -19.5q-27 0 -48.5 19.5t-21.5 48.5z" />
<glyph unicode="&#xe5;" horiz-adv-x="595" d="M49 332q0 172 45 254t215 217q29 23 35 45t6 90t-18.5 90.5t-67.5 22.5q-41 0 -96 -27t-86 -57q-6 -6 -16 -6q-6 0 -7 10q0 29 78 98.5t154 69.5t139.5 -58.5t63.5 -197.5v-744q0 -51 26 -51q37 0 60 35q8 8 10 8q6 0 6 -10q-6 -47 -38 -84t-69 -37q-70 0 -120 78 q-70 -78 -142 -78q-178 0 -178 332zM160 1341q0 61 43 103.5t94 42.5q55 0 98 -42t43 -104q0 -66 -42 -106.5t-99 -40.5q-53 0 -95 42t-42 105zM201 369q0 -115 8 -177.5t21.5 -83t37.5 -20.5q33 0 57.5 38t24.5 83v536h-4q-86 -74 -115.5 -148t-29.5 -228zM248 1341 q0 -98 49 -98q51 0 51 98q0 96 -51 97q-49 -1 -49 -97z" />
<glyph unicode="&#xe6;" horiz-adv-x="849" d="M53 348q0 162 50.5 243t209.5 212q27 23 34 45t7 90q0 113 -86 113q-41 0 -96 -27t-86 -57q-6 -6 -16 -6q-6 0 -7 10q0 29 78 98.5t154 69.5q94 0 151 -74q55 74 129 74q221 0 222 -385v-127q0 -25 -19 -25h-276v-158q0 -195 29.5 -275.5t99.5 -80.5q47 0 77.5 22.5 t65.5 73.5q6 10 14 11q10 0 7 -13q-20 -80 -68.5 -131t-120.5 -51q-131 0 -200 94q-82 -94 -193 -94q-88 0 -124 87t-36 261zM205 368.5q0 -151.5 12 -216t51 -64.5q31 0 58.5 29.5t27.5 83.5v553h-4q-88 -80 -116.5 -157t-28.5 -228.5zM502 680h151v205q0 166 -78 166 q-74 0 -73 -166v-205z" />
<glyph unicode="&#xe7;" horiz-adv-x="512" d="M53 614q0 254 63.5 389.5t178.5 135.5q135 0 176 -207q4 -16 -6 -17q-6 0 -12 11q-45 68 -77 96.5t-71 28.5q-53 0 -72.5 -88.5t-19.5 -348.5q0 -207 12.5 -323.5t34 -159.5t55.5 -43q74 0 136 109q10 16 18 16q10 0 6 -14q-45 -174 -151 -195l-27 -86q49 6 86 -28.5 t37 -84.5q0 -53 -37 -87.5t-90 -34.5q-55 0 -133 55l18 29q49 -23 98 -23q27 0 44.5 17.5t17.5 45.5q0 35 -37 49.5t-82 2.5l47 145q-111 16 -162 162.5t-51 447.5z" />
<glyph unicode="&#xe8;" horiz-adv-x="561" d="M37 1339l47 88q10 12 35 -8l229 -186l-12 -21l-279 105q-28 10 -20 22zM53 643q0 231 62.5 363.5t171.5 132.5q221 0 221 -385v-127q0 -25 -19 -25h-276v-158q0 -195 29.5 -275.5t99.5 -80.5q47 0 78 22.5t65 73.5q6 10 15 11q8 0 6 -13q-20 -80 -68.5 -131t-120.5 -51 q-139 0 -201.5 149.5t-62.5 493.5zM213 680h152v205q0 166 -78 166q-74 0 -74 -166v-205z" />
<glyph unicode="&#xe9;" horiz-adv-x="561" d="M53 643q0 231 62.5 363.5t171.5 132.5q221 0 221 -385v-127q0 -25 -19 -25h-276v-158q0 -195 29.5 -275.5t99.5 -80.5q47 0 78 22.5t65 73.5q6 10 15 11q8 0 6 -13q-20 -80 -68.5 -131t-120.5 -51q-139 0 -201.5 149.5t-62.5 493.5zM213 680h152v205q0 166 -78 166 q-74 0 -74 -166v-205zM213 1235l231 186q23 23 33 9l49 -89q6 -10 -20 -22l-281 -105z" />
<glyph unicode="&#xea;" horiz-adv-x="561" d="M53 643q0 231 62.5 363.5t171.5 132.5q221 0 221 -385v-127q0 -25 -19 -25h-276v-158q0 -195 29.5 -275.5t99.5 -80.5q47 0 78 22.5t65 73.5q6 10 15 11q8 0 6 -13q-20 -80 -68.5 -131t-120.5 -51q-139 0 -201.5 149.5t-62.5 493.5zM117 1219l139 221q6 16 25 16 q16 0 26 -16l137 -221l-22 -17l-119 103q-25 20 -45 0l-119 -103zM213 680h152v205q0 166 -78 166q-74 0 -74 -166v-205z" />
<glyph unicode="&#xeb;" horiz-adv-x="561" d="M53 643q0 231 62.5 363.5t171.5 132.5q221 0 221 -385v-127q0 -25 -19 -25h-276v-158q0 -195 29.5 -275.5t99.5 -80.5q47 0 78 22.5t65 73.5q6 10 15 11q8 0 6 -13q-20 -80 -68.5 -131t-120.5 -51q-139 0 -201.5 149.5t-62.5 493.5zM100 1317q0 29 20.5 46t49.5 17 q68 0 68 -63q0 -29 -19.5 -48.5t-48.5 -19.5q-27 0 -48.5 19.5t-21.5 48.5zM213 680h152v205q0 166 -78 166q-74 0 -74 -166v-205zM326 1317q0 29 20.5 46t48.5 17q68 0 68 -63q0 -29 -19.5 -48.5t-48.5 -19.5q-27 0 -48 19.5t-21 48.5z" />
<glyph unicode="&#xec;" horiz-adv-x="315" d="M-88 1339l49 88q10 12 35 -8l229 -186l-12 -21l-281 105q-28 10 -20 22zM10 8q0 6 8 15l64 71q4 4 4 19v927q0 10 -6 17l-62 57q-8 12 -8 16q0 8 13 9h196q10 0 10 -13v-1013q0 -14 4 -19l64 -71q8 -8 8 -15q0 -8 -12 -8h-270q-13 0 -13 8z" />
<glyph unicode="&#xed;" horiz-adv-x="315" d="M10 8q0 6 8 15l64 71q4 4 4 19v927q0 10 -6 17l-62 57q-8 12 -8 16q0 8 13 9h196q10 0 10 -13v-1013q0 -14 4 -19l64 -71q8 -8 8 -15q0 -8 -12 -8h-270q-13 0 -13 8zM90 1235l232 186q23 23 32 9l49 -89q6 -10 -20 -22l-281 -105z" />
<glyph unicode="&#xee;" horiz-adv-x="315" d="M-18 1219l139 221q6 16 24 16q16 0 27 -16l137 -221l-22 -17l-119 103q-25 20 -45 0l-119 -103zM10 8q0 6 8 15l64 71q4 4 4 19v927q0 10 -6 17l-62 57q-8 12 -8 16q0 8 13 9h196q10 0 10 -13v-1013q0 -14 4 -19l64 -71q8 -8 8 -15q0 -8 -12 -8h-270q-13 0 -13 8z" />
<glyph unicode="&#xef;" horiz-adv-x="315" d="M-37 1317q0 29 21.5 46t50.5 17q68 0 67 -63q0 -29 -19.5 -48.5t-48 -19.5t-50 19.5t-21.5 48.5zM10 8q0 6 8 15l64 71q4 4 4 19v927q0 10 -6 17l-62 57q-8 12 -8 16q0 8 13 9h196q10 0 10 -13v-1013q0 -14 4 -19l64 -71q8 -8 8 -15q0 -8 -12 -8h-270q-13 0 -13 8z M190 1317q0 29 20.5 46t49.5 17q68 0 68 -63q0 -29 -19.5 -48.5t-48.5 -19.5q-27 0 -48.5 19.5t-21.5 48.5z" />
<glyph unicode="&#xf0;" horiz-adv-x="591" d="M53 618q0 520 242 521q25 0 78 -33q0 117 -49 219l-150 -108l-43 53l160 116q-27 41 -82 78t-117 45q-12 2 -10 17q4 10 18 10q162 0 256 -102l140 102l43 -53l-140 -103q59 -72 99.5 -269.5t40.5 -434.5q0 -197 -18.5 -333t-54.5 -209t-77 -103.5t-94 -30.5 q-72 0 -122 46t-85 189t-35 383zM213 618q0 -223 10 -341.5t26.5 -153.5t45.5 -35q31 0 47 35t26.5 153.5t10.5 341.5q0 174 -10.5 270.5t-27.5 129.5t-46 33t-45.5 -33t-26.5 -129.5t-10 -270.5z" />
<glyph unicode="&#xf1;" horiz-adv-x="630" d="M10 8q0 8 8 15l64 71q4 4 4 19v927q0 10 -6 17l-62 57q-8 12 -8 16q0 8 13 9h196q10 0 10 -13v-59h4q68 72 142 72q78 0 124 -54.5t46 -154.5v-817q0 -14 4 -19l63 -71q8 -8 9 -15q0 -8 -13 -8h-270q-12 0 -12 8q0 6 8 15l63 71q4 4 4 19v819q0 119 -69 119 q-39 0 -71 -50.5t-32 -128.5v-759q0 -14 2 -19l64 -71q10 -6 10 -14.5t-12 -8.5h-270q-13 0 -13 8zM131 1223q43 166 98 166q27 0 78 -31l51 -31q14 -8 37 -8q35 0 74 82l29 -15q-43 -168 -103 -167q-25 0 -65 20l-47 27q-35 20 -54 20q-29 0 -71 -78z" />
<glyph unicode="&#xf2;" horiz-adv-x="591" d="M51 1339l47 88q10 12 35 -8l229 -186l-12 -21l-278 105q-29 10 -21 22zM53 618q0 520 242 521q244 0 244 -521q0 -350 -64.5 -484t-179.5 -134q-72 0 -122 46t-85 189t-35 383zM213 618q0 -223 10 -341.5t26.5 -153.5t45.5 -35q31 0 47 35t26.5 153.5t10.5 341.5 q0 174 -10.5 270.5t-27.5 129.5t-46 33t-45.5 -33t-26.5 -129.5t-10 -270.5z" />
<glyph unicode="&#xf3;" horiz-adv-x="591" d="M53 618q0 520 242 521q244 0 244 -521q0 -350 -64.5 -484t-179.5 -134q-72 0 -122 46t-85 189t-35 383zM213 618q0 -223 10 -341.5t26.5 -153.5t45.5 -35q31 0 47 35t26.5 153.5t10.5 341.5q0 174 -10.5 270.5t-27.5 129.5t-46 33t-45.5 -33t-26.5 -129.5t-10 -270.5z M229 1235l232 186q23 23 33 9l49 -89q6 -10 -21 -22l-280 -105z" />
<glyph unicode="&#xf4;" horiz-adv-x="591" d="M53 618q0 520 242 521q244 0 244 -521q0 -350 -64.5 -484t-179.5 -134q-72 0 -122 46t-85 189t-35 383zM129 1219l139 221q6 16 25 16q16 0 26 -16l138 -221l-23 -17l-119 103q-25 20 -45 0l-118 -103zM213 618q0 -223 10 -341.5t26.5 -153.5t45.5 -35q31 0 47 35 t26.5 153.5t10.5 341.5q0 174 -10.5 270.5t-27.5 129.5t-46 33t-45.5 -33t-26.5 -129.5t-10 -270.5z" />
<glyph unicode="&#xf5;" horiz-adv-x="591" d="M53 618q0 520 242 521q244 0 244 -521q0 -350 -64.5 -484t-179.5 -134q-72 0 -122 46t-85 189t-35 383zM113 1223q43 166 98 166q27 0 78 -31l51 -31q14 -8 37 -8q35 0 74 82l28 -15q-18 -72 -45.5 -119.5t-56.5 -47.5q-25 0 -66 20l-47 27q-35 20 -53 20q-29 0 -72 -78z M213 618q0 -223 10 -341.5t26.5 -153.5t45.5 -35q31 0 47 35t26.5 153.5t10.5 341.5q0 174 -10.5 270.5t-27.5 129.5t-46 33t-45.5 -33t-26.5 -129.5t-10 -270.5z" />
<glyph unicode="&#xf6;" horiz-adv-x="591" d="M53 618q0 520 242 521q244 0 244 -521q0 -350 -64.5 -484t-179.5 -134q-72 0 -122 46t-85 189t-35 383zM115 1317q0 29 20.5 46t48.5 17q68 0 68 -63q0 -29 -19.5 -48.5t-48.5 -19.5q-27 0 -48 19.5t-21 48.5zM213 618q0 -223 10 -341.5t26.5 -153.5t45.5 -35q31 0 47 35 t26.5 153.5t10.5 341.5q0 174 -10.5 270.5t-27.5 129.5t-46 33t-45.5 -33t-26.5 -129.5t-10 -270.5zM340 1317q0 29 20.5 46t49.5 17q68 0 67 -63q0 -29 -19.5 -48.5t-47.5 -19.5q-27 0 -48.5 19.5t-21.5 48.5z" />
<glyph unicode="&#xf7;" d="M98 467v102h1032v-102h-1032zM500 94q0 47 33.5 81t80.5 34q45 0 80 -35t35 -80q0 -43 -35 -78.5t-78 -35.5q-47 0 -81.5 33.5t-34.5 80.5zM500 942q0 47 33.5 81t80.5 34q45 0 80 -35t35 -80q0 -43 -35 -79t-78 -36q-47 0 -81.5 34t-34.5 81z" />
<glyph unicode="&#xf8;" horiz-adv-x="591" d="M31 29l67 166q-45 147 -45 423q0 520 242 521q96 0 156 -82l32 82l66 -29l-57 -139q47 -125 47 -353q0 -350 -64.5 -484t-179.5 -134q-104 0 -158 100l-41 -100zM213 481h4l154 381q-12 188 -76 189q-29 0 -45.5 -33t-26.5 -129t-10 -271v-137zM223 309q4 -90 15.5 -140 t23.5 -65.5t33 -15.5q31 0 47 35t26.5 153.5t10.5 341.5v72h-4z" />
<glyph unicode="&#xf9;" horiz-adv-x="630" d="M10 1130q0 8 13 9h196q10 0 10 -13v-919q0 -119 80 -119q39 0 65.5 45t26.5 119v788q0 10 -6 17l-59 57q-10 10 -10 16q0 8 12 9h197q10 0 10 -13v-1013q0 -14 2 -19l63 -71q10 -6 10.5 -14.5t-14.5 -8.5h-190q-14 0 -15 8v70h-4q-66 -78 -137 -78q-174 0 -174 209v831 q0 10 -6 17l-62 57q-8 12 -8 16zM72 1339l47 88q10 12 35 -8l229 -186l-12 -21l-279 105q-28 10 -20 22z" />
<glyph unicode="&#xfa;" horiz-adv-x="630" d="M10 1130q0 8 13 9h196q10 0 10 -13v-919q0 -119 80 -119q39 0 65.5 45t26.5 119v788q0 10 -6 17l-59 57q-10 10 -10 16q0 8 12 9h197q10 0 10 -13v-1013q0 -14 2 -19l63 -71q10 -6 10.5 -14.5t-14.5 -8.5h-190q-14 0 -15 8v70h-4q-66 -78 -137 -78q-174 0 -174 209v831 q0 10 -6 17l-62 57q-8 12 -8 16zM248 1235l231 186q23 23 33 9l49 -89q6 -10 -20 -22l-281 -105z" />
<glyph unicode="&#xfb;" horiz-adv-x="630" d="M10 1130q0 8 13 9h196q10 0 10 -13v-919q0 -119 80 -119q39 0 65.5 45t26.5 119v788q0 10 -6 17l-59 57q-10 10 -10 16q0 8 12 9h197q10 0 10 -13v-1013q0 -14 2 -19l63 -71q10 -6 10.5 -14.5t-14.5 -8.5h-190q-14 0 -15 8v70h-4q-66 -78 -137 -78q-174 0 -174 209v831 q0 10 -6 17l-62 57q-8 12 -8 16zM152 1219l139 221q6 16 24 16q16 0 27 -16l137 -221l-22 -17l-119 103q-25 20 -45 0l-119 -103z" />
<glyph unicode="&#xfc;" horiz-adv-x="630" d="M10 1130q0 8 13 9h196q10 0 10 -13v-919q0 -119 80 -119q39 0 65.5 45t26.5 119v788q0 10 -6 17l-59 57q-10 10 -10 16q0 8 12 9h197q10 0 10 -13v-1013q0 -14 2 -19l63 -71q10 -6 10.5 -14.5t-14.5 -8.5h-190q-14 0 -15 8v70h-4q-66 -78 -137 -78q-174 0 -174 209v831 q0 10 -6 17l-62 57q-8 12 -8 16zM135 1317q0 29 20.5 46t49.5 17q68 0 67 -63q0 -29 -19.5 -48.5t-47.5 -19.5q-27 0 -48.5 19.5t-21.5 48.5zM360 1317q0 29 20.5 46t49.5 17q68 0 68 -63q0 -29 -19.5 -48.5t-48.5 -19.5q-27 0 -48.5 19.5t-21.5 48.5z" />
<glyph unicode="&#xfd;" horiz-adv-x="530" d="M8 1130q0 8 12 9h228q12 0 12 -8.5t-6 -16.5l-39 -51q-10 -18 -8 -39l74 -594h4l59 594q4 25 -10 39l-45 51q-8 8 -8 16.5t12 8.5h217q12 0 12 -9q0 -10 -8 -16l-51 -49q-12 -12 -17 -37l-137 -1108q-12 -94 -49 -142t-88 -48q-68 0 -106.5 66.5t-38.5 127.5q0 14 8 15 q10 0 16 -15q18 -37 28.5 -55.5t29 -34.5t38.5 -16q66 0 66 116q0 74 -14 181l-123 913q-4 20 -15 31l-45 55q-8 12 -8 16zM199 1235l231 186q23 23 33 9l49 -89q6 -10 -20 -22l-281 -105z" />
<glyph unicode="&#xfe;" horiz-adv-x="608" d="M10 -264q0 8 8 16l64 72q4 2 4 16v1610q0 10 -8 16l-60 47q-8 6 -8 14.5t13 8.5h194q12 0 12 -12v-457h4q63 72 136 72q39 0 67.5 -16.5t58 -65.5t45 -156.5t15.5 -271.5q-2 -166 -13.5 -286t-27.5 -185.5t-43 -102.5t-50.5 -46t-53.5 -9q-76 0 -134 78h-4v-238 q0 -14 2 -16l64 -72q10 -10 10 -16t-12 -6h-270q-13 0 -13 6zM229 240q0 -61 32 -106.5t69 -45.5q25 0 37 31t20 149.5t8 360.5q0 184 -9 277t-23.5 119t-43.5 26q-27 0 -58.5 -43t-31.5 -111v-657z" />
<glyph unicode="&#xff;" horiz-adv-x="530" d="M8 1130q0 8 12 9h228q12 0 12 -8.5t-6 -16.5l-39 -51q-10 -18 -8 -39l74 -594h4l59 594q4 25 -10 39l-45 51q-8 8 -8 16.5t12 8.5h217q12 0 12 -9q0 -10 -8 -16l-51 -49q-12 -12 -17 -37l-137 -1108q-12 -94 -49 -142t-88 -48q-68 0 -106.5 66.5t-38.5 127.5q0 14 8 15 q10 0 16 -15q18 -37 28.5 -55.5t29 -34.5t38.5 -16q66 0 66 116q0 74 -14 181l-123 913q-4 20 -15 31l-45 55q-8 12 -8 16zM84 1317q0 29 20.5 46t49.5 17q68 0 67 -63q0 -29 -19.5 -48.5t-47.5 -19.5q-27 0 -48.5 19.5t-21.5 48.5zM309 1317q0 29 20.5 46t49.5 17 q68 0 67 -63q0 -29 -19 -48.5t-48 -19.5q-27 0 -48.5 19.5t-21.5 48.5z" />
<glyph unicode="&#x152;" horiz-adv-x="919" d="M57 809q0 727 277 727h520q16 0 16 -18v-510q0 -12 -10 -13q-12 0 -16 15l-111 385q-12 39 -53 39h-117v-600h45q16 0 23 14l71 143q6 12 13 13q8 0 8 -13v-434q0 -10 -8 -10q-6 0 -15 14l-69 150q-6 14 -23 14h-45v-623h117q43 0 55 37l111 393q2 12 14 13q10 0 10 -13 v-514q0 -18 -16 -18h-524q-70 0 -121 49t-79 124t-45 188.5t-22.5 216t-5.5 231.5zM225 807q0 -387 33 -546t100 -159q47 0 48 54v1222q0 55 -52 56q-129 0 -129 -627z" />
<glyph unicode="&#x153;" horiz-adv-x="872" d="M53 618q0 520 242 521q47 0 89 -30t67 -79q47 109 147 109q221 0 221 -385v-127q0 -25 -18 -25h-277v-158q0 -195 30 -275.5t99 -80.5q47 0 78 22.5t66 73.5q6 10 14 11q8 0 6 -13q-20 -80 -68.5 -131t-119.5 -51q-135 0 -180 119q-53 -119 -154 -119q-72 0 -122 46 t-85 189t-35 383zM213 643q0 -236 10 -359.5t26.5 -159.5t45.5 -36q31 0 48 36t27.5 160t10.5 359q0 162 -10.5 253t-28.5 123t-47 32t-45.5 -32t-26.5 -123t-10 -253zM524 680h152v205q0 166 -78 166q-74 0 -74 -166v-205z" />
<glyph unicode="&#x178;" horiz-adv-x="665" d="M8 1528q0 8 15 8h292q16 0 16.5 -10t-14.5 -21l-63 -59q-12 -12 -6 -39l92 -453h4l96 453q6 27 -8 39l-65 59q-14 10 -14.5 20.5t18.5 10.5h270q16 0 16 -8t-14 -23l-68 -69q-14 -16 -20 -47l-145 -689v-553q0 -39 18 -57l61 -59l7 -6q8 -8 8 -13q0 -12 -12 -12h-322 q-12 0 -12 12q0 2 3 5t6 7.5t5 6.5l61 59q18 18 19 57v490l-152 752q-2 25 -22 47l-58 69q-12 19 -12 23zM152 1675.5q0 28.5 20.5 46t48.5 17.5q68 0 68 -64q0 -29 -19.5 -48t-48.5 -19q-27 0 -48 19.5t-21 48zM377 1675.5q0 28.5 20.5 46t48.5 17.5q68 0 68 -64 q0 -29 -19.5 -48t-48.5 -19q-27 0 -48 19.5t-21 48z" />
<glyph unicode="&#x2c6;" horiz-adv-x="442" d="M57 1321l140 221q6 16 24 17q16 0 27 -17l137 -221l-23 -16l-118 102q-25 20 -45 0l-119 -102z" />
<glyph unicode="&#x2dc;" horiz-adv-x="471" d="M51 1325q43 166 99 166q27 0 77 -31l52 -30q14 -8 36 -9q35 0 74 82l29 -14q-18 -72 -46 -120t-57 -48q-25 0 -65 20l-47 27q-35 20 -53 21q-29 0 -72 -78z" />
<glyph unicode="&#x2000;" horiz-adv-x="907" />
<glyph unicode="&#x2001;" horiz-adv-x="1814" />
<glyph unicode="&#x2002;" horiz-adv-x="907" />
<glyph unicode="&#x2003;" horiz-adv-x="1814" />
<glyph unicode="&#x2004;" horiz-adv-x="604" />
<glyph unicode="&#x2005;" horiz-adv-x="452" />
<glyph unicode="&#x2006;" horiz-adv-x="301" />
<glyph unicode="&#x2007;" horiz-adv-x="301" />
<glyph unicode="&#x2008;" horiz-adv-x="225" />
<glyph unicode="&#x2009;" horiz-adv-x="362" />
<glyph unicode="&#x200a;" horiz-adv-x="100" />
<glyph unicode="&#x2010;" horiz-adv-x="393" d="M57 606v86h279v-86h-279z" />
<glyph unicode="&#x2011;" horiz-adv-x="393" d="M57 606v86h279v-86h-279z" />
<glyph unicode="&#x2012;" horiz-adv-x="393" d="M57 606v86h279v-86h-279z" />
<glyph unicode="&#x2013;" horiz-adv-x="1024" d="M0 606v86h1024v-86h-1024z" />
<glyph unicode="&#x2014;" horiz-adv-x="2048" d="M0 606v86h2048v-86h-2048z" />
<glyph unicode="&#x2018;" horiz-adv-x="274" d="M57 1221q0 92 33 169.5t66.5 111.5t50.5 34q10 0 10 -8q0 -4 -5 -10.5t-13.5 -15.5t-12.5 -15q-39 -57 -54 -116.5t-7 -84.5q82 -6 82 -106q0 -98 -76 -99q-74 1 -74 140z" />
<glyph unicode="&#x2019;" horiz-adv-x="274" d="M57 1090q0 4 5.5 10t13.5 15t12 15q39 57 54.5 117t7.5 84q-82 6 -82 107q0 98 75 98q74 0 74 -139q0 -92 -32.5 -170t-66.5 -112t-50 -34q-11 1 -11 9z" />
<glyph unicode="&#x201a;" horiz-adv-x="274" d="M57 -242q0 4 5.5 10.5t13.5 15.5t12 15q39 57 54.5 116.5t7.5 84.5q-82 6 -82 106q0 98 75 99q74 0 74 -139q0 -92 -32.5 -170t-66.5 -112t-50 -34q-11 0 -11 8z" />
<glyph unicode="&#x201c;" horiz-adv-x="526" d="M57 1221q0 92 33 169.5t66.5 111.5t50.5 34q10 0 10 -8q0 -4 -5 -10.5t-13.5 -15.5t-12.5 -15q-39 -57 -54 -116.5t-7 -84.5q82 -6 82 -106q0 -98 -76 -99q-74 1 -74 140zM309 1221q0 92 33 169.5t66.5 111.5t50.5 34q10 0 10 -8q0 -4 -5 -10.5t-13.5 -15.5t-12.5 -15 q-39 -57 -54 -116.5t-7 -84.5q82 -6 82 -106q0 -98 -76 -99q-74 1 -74 140z" />
<glyph unicode="&#x201d;" horiz-adv-x="526" d="M57 1090q0 4 5.5 10t13.5 15t12 15q39 57 54.5 117t7.5 84q-82 6 -82 107q0 98 75 98q74 0 74 -139q0 -92 -32.5 -170t-66.5 -112t-50 -34q-11 1 -11 9zM309 1090q0 4 5 10t13.5 15t12.5 15q39 57 54.5 117t6.5 84q-82 6 -82 107q0 98 76 98q74 0 74 -139q0 -92 -33 -170 t-66.5 -112t-50.5 -34q-10 1 -10 9z" />
<glyph unicode="&#x201e;" horiz-adv-x="526" d="M57 -242q0 4 5.5 10.5t13.5 15.5t12 15q39 57 54.5 116.5t7.5 84.5q-82 6 -82 106q0 98 75 99q74 0 74 -139q0 -92 -32.5 -170t-66.5 -112t-50 -34q-11 0 -11 8zM309 -242q0 4 5 10.5t13.5 15.5t12.5 15q39 57 54.5 116.5t6.5 84.5q-82 6 -82 106q0 98 76 99 q74 0 74 -139q0 -92 -33 -170t-66.5 -112t-50.5 -34q-10 0 -10 8z" />
<glyph unicode="&#x2022;" horiz-adv-x="331" d="M49 819q0 63 28.5 110.5t86.5 47.5q61 0 90 -46t29 -112q0 -70 -29 -117t-90 -47q-57 0 -86 48t-29 116z" />
<glyph unicode="&#x2026;" horiz-adv-x="1024" d="M96 102q0 43 18.5 74t55.5 31q74 0 74 -105q0 -102 -74 -102q-37 0 -55.5 30.5t-18.5 71.5zM438 102q0 43 18.5 74t55.5 31q74 0 74 -105q0 -102 -74 -102q-37 0 -55.5 30.5t-18.5 71.5zM780 102q0 43 18.5 74t55.5 31q74 0 74 -105q0 -102 -74 -102q-37 0 -55.5 30.5 t-18.5 71.5z" />
<glyph unicode="&#x202f;" horiz-adv-x="362" />
<glyph unicode="&#x2039;" horiz-adv-x="382" d="M66 856q-16 23 0 45l223 240q12 14 27.5 6t7.5 -27l-129 -241l129 -242q8 -20 -7.5 -27.5t-27.5 6.5z" />
<glyph unicode="&#x203a;" horiz-adv-x="382" d="M59 637l129 242l-129 241q-8 18 7.5 26.5t27.5 -5.5l223 -240q16 -23 0 -45l-223 -240q-12 -14 -27.5 -6.5t-7.5 27.5z" />
<glyph unicode="&#x205f;" horiz-adv-x="452" />
<glyph unicode="&#x20ac;" horiz-adv-x="628" d="M27 641v74h63v106h-63v74h63q10 641 266 641q78 0 130.5 -67.5t70.5 -149.5t18 -168q0 -23 -16 -23q-18 0 -18 23q0 57 -60.5 170t-132.5 113q-61 0 -82.5 -123t-23.5 -416h174v-74h-174v-106h174v-74h-174q2 -293 23.5 -416t82.5 -123q74 2 135.5 113t61.5 168 q0 23 20 23q16 0 17 -23q0 -84 -19.5 -166t-73 -149.5t-133.5 -67.5q-256 0 -266 641h-63z" />
<glyph unicode="&#x2122;" horiz-adv-x="1067" d="M57 1221v309q0 6 9 6h391q6 0 6 -6v-309q0 -8 -8.5 -8.5t-10.5 8.5l-67 233q-6 25 -17 25h-49v-777q0 -23 13 -34l38 -35l5 -4q6 -4 6 -6q0 -8 -11 -9h-206q-8 0 -9 9l11 10l39 35q12 12 12 34v777h-47q-10 0 -21 -25l-67 -233q-2 -8 -8 -9q-9 1 -9 9zM469 623q0 2 6 4 l6 6l33 35q10 16 10 34v746q0 18 -10 35l-33 35l-6 6q-6 2 -6 4q0 8 10 8h174q12 0 17 -20l63 -476h4l76 476q4 20 14 20h174q8 0 9 -8q0 -2 -9 -10l-34 -35q-10 -16 -11 -35v-746q0 -18 11 -34l34 -35q8 -8 9 -10q0 -8 -9 -9h-186q-8 0 -8 9l4 4q4 4 6 8l27 33q8 10 8 34 v555q0 10 -4 11q-8 0 -8 -13l-90 -632q0 -8 -11 -9h-28q-4 0 -9 11l-84 630q-4 12 -10 13q-4 0 -4 -11v-555q0 -20 8 -34l29 -33q2 -4 6 -8l4 -4q0 -8 -10 -9h-162q-10 1 -10 9z" />
<glyph unicode="&#xe000;" horiz-adv-x="1140" d="M0 1140h1140v-1140h-1140v1140z" />
<glyph unicode="&#xfb01;" horiz-adv-x="630" d="M-2 1124q-2 6 1 10.5t7 4.5h64q16 0 16 18v68q0 143 86 227t186 84q195 0 195 -106q0 -41 -20.5 -64t-53.5 -23q-25 0 -44 18.5t-23 41.5q-12 61 -70 61q-113 0 -113 -252v-55q0 -18 17 -18h61q4 0 7 -4.5t1 -10.5t-8 -10l-61 -63q-16 -20 -17 -37v-901q0 -14 2 -19 l76 -71q8 -8 8 -15q0 -8 -12 -8h-280q-12 0 -12.5 8t7.5 15l64 71q4 4 4 19v901q0 14 -18 37l-62 63q-6 4 -8 10zM326 8q0 6 8 15l63 71q4 4 4 19v927q0 10 -6 17l-61 57q-8 12 -8 16q0 8 12 9h197q10 0 10 -13v-1013q0 -14 4 -19l63 -71q8 -8 9 -15q0 -8 -13 -8h-270 q-12 0 -12 8z" />
<glyph unicode="&#xfb02;" horiz-adv-x="638" d="M-2 1124q-2 6 1 10.5t7 4.5h64q16 0 16 18v68q0 143 86 227t186 84h185q10 0 10 -12v-1411q0 -14 4 -19l64 -71q8 -8 8 -15q0 -8 -13 -8h-270q-12 0 -12 8q0 6 8 15l64 71q4 4 4 19v1325q0 10 -27 18t-41 8q-113 0 -113 -252v-55q0 -18 17 -18h61q4 0 7 -4.5t1 -10.5 t-8 -10l-61 -63q-16 -20 -17 -37v-901q0 -14 2 -19l76 -71q8 -8 8 -15q0 -8 -12 -8h-280q-12 0 -12.5 8t7.5 15l64 71q4 4 4 19v901q0 14 -18 37l-62 63q-6 4 -8 10z" />
<glyph unicode="&#xfb03;" horiz-adv-x="987" d="M682 8q0 6 8 15l64 71q4 4 4 19v927q0 10 -6 17l-62 57q-8 12 -8 16q0 8 13 9h196q10 0 10 -13v-1013q0 -14 4 -19l64 -71q8 -8 8 -15q0 -8 -12 -8h-270q-13 0 -13 8zM752 1427q0 43 22.5 76t53 33t52 -33t21.5 -76q0 -41 -21.5 -74.5t-52 -33.5t-53 33.5t-22.5 74.5z M333 1129q0 3 2 6q3 4 7 4h64q16 0 16 18v172q0 100 51 153.5t129 53.5q68 0 113 -55.5t45 -118.5q0 -12 -8 -12t-21 16q-61 82 -114 82q-51 0 -52 -86v-205q0 -18 17 -18h61q4 0 7 -4.5t1 -10.5t-8 -10l-61 -63q-16 -20 -17 -37v-901q0 -14 2 -19l76 -71q8 -8 8 -15 q0 -8 -12 -8h-280q-12 0 -12.5 8t7.5 15l64 71q4 4 4 19v901q0 14 -18 37l-62 63q-9 6 -9 15zM-3 1129q0 3 2 6q3 4 7 4h64q16 0 16 18v172q0 100 51 153.5t129 53.5q68 0 113 -55.5t45 -118.5q0 -12 -8 -12t-21 16q-61 82 -114 82q-51 0 -52 -86v-205q0 -18 17 -18h61 q4 0 7 -4.5t1 -10.5t-8 -10l-61 -63q-16 -20 -17 -37v-901q0 -14 2 -19l76 -71q8 -8 8 -15q0 -8 -12 -8h-280q-12 0 -12.5 8t7.5 15l64 71q4 4 4 19v901q0 14 -18 37l-62 63q-9 6 -9 15z" />
<glyph unicode="&#xfb04;" horiz-adv-x="987" d="M682 8q0 6 8 15l64 71q4 4 4 19v1325q0 10 -6 16l-62 59q-8 8 -8 15q0 8 13 8h196q10 0 10 -12v-1411q0 -14 4 -19l64 -71q8 -8 8 -15q0 -8 -12 -8h-270q-13 0 -13 8zM333 1129q0 3 2 6q3 4 7 4h64q16 0 16 18v172q0 100 51 153.5t129 53.5q68 0 113 -55.5t45 -118.5 q0 -12 -8 -12t-21 16q-61 82 -114 82q-51 0 -52 -86v-205q0 -18 17 -18h61q4 0 7 -4.5t1 -10.5t-8 -10l-61 -63q-16 -20 -17 -37v-901q0 -14 2 -19l76 -71q8 -8 8 -15q0 -8 -12 -8h-280q-12 0 -12.5 8t7.5 15l64 71q4 4 4 19v901q0 14 -18 37l-62 63q-9 6 -9 15zM-3 1129 q0 3 2 6q3 4 7 4h64q16 0 16 18v172q0 100 51 153.5t129 53.5q68 0 113 -55.5t45 -118.5q0 -12 -8 -12t-21 16q-61 82 -114 82q-51 0 -52 -86v-205q0 -18 17 -18h61q4 0 7 -4.5t1 -10.5t-8 -10l-61 -63q-16 -20 -17 -37v-901q0 -14 2 -19l76 -71q8 -8 8 -15q0 -8 -12 -8 h-280q-12 0 -12.5 8t7.5 15l64 71q4 4 4 19v901q0 14 -18 37l-62 63q-9 6 -9 15z" />
</font>
</defs>
</svg>
